Tags
Language
Tags

Beethoven Trio Bonn - Beethoven - Piano Trio Op. 70 No. 2 & Symphony No. 2 (2020) [Official Digital Download]

Posted By:
Beethoven Trio Bonn - Beethoven - Piano Trio Op. 70 No. 2 & Symphony No. 2 (2020) [Official Digital Download]

Beethoven Trio Bonn - Beethoven - Piano Trio Op. 70 No. 2 & Symphony No. 2 (2020) [Official Digital Download]
FLAC (tracks) 24-bit/48 kHz | Front Cover | Time - 01:05:20 minutes | 633 MB
Classical | Label: CAvi-Music, Official Digital Download

A triple album series, pairing Beethoven’s original piano trios with arrangements of one of his orchestral works Vol. 2 Trio No. 6 Op. 70/2 Symphony No. 2: standard vs. “domestic” music

In a series of three albums, the Beethoven Trio Bonn explores the confrontation between one of Beethoven’s standard works for piano trio with a further “house music” arrangement of one of his orchestral works.

More than providing an interesting pairing, the Beethoven Trio Bonn was keen on interpreting an original work for piano trio alongside an arrangement of an orchestral work “downsized” to piano trio format. This new concept delivers surprising, unforeseen results.

Composers and publishers in Beethoven’s day sought to indulge the pleasures of the middle class: dozens of arrangements and transcriptions of orchestral works were in wide circulation for domestic use. Haydn, Mozart and many others had always tried to provide access to the wonders of symphonic music for those members of the population who could not gain entrance to the grand concerts of the upper classes.

Up to the 1930s, music publishers continued to commission composers to arrange and transcribe symphonies and other orchestral works, in order to make them readily available as chamber music; no composer found the task too lowly, since such work was a good source of steady income.

Vol. 2 presents the young fresh Symphony No. 2 in Beethoven own trio arrangement coupled with the less known but definitely beautiful Trio No. 6. It sounds as if the Symphony was a trio in its original form, natural and favourable. Also in this arrangement, the piano carries the main load of all the orchestral voices. “BTB”, the Beethoven Trio Bonn is mastering this major challenge again and makes also this Vol. 2 to a little diamond and enjoyable album. Thanks to BTB there is a fascinating, committed tempo and clarity, a major portion of musicality and joy in the performance.

TRACKLIST

Ludwig van Beethoven (1770 - 1827): Piano Trio No. 6 in E-Flat Major, Op. 70 No. 2:

1 Piano Trio No. 6 in E-Flat Major, Op. 70 No. 2: I. Poco sostenuto - Allegro ma non troppo
2 Piano Trio No. 6 in E-Flat Major, Op. 70 No. 2: II. Allegretto
3 Piano Trio No. 6 in E-Flat Major, Op. 70 No. 2: III. Allegretto ma non troppo
4 Piano Trio No. 6 in E-Flat Major, Op. 70 No. 2: IV. Finale. Allegro

Symphony No. 2 in D Major, Op. 36:

5 Symphony No. 2 in D Major, Op. 36: I. Adagio molto (Arr. for Trio)
6 Symphony No. 2 in D Major, Op. 36: II. Larghetto (Arr. for Trio)
7 Symphony No. 2 in D Major, Op. 36: III. Scherzo. Allegro - Trio (Arr. for Trio)
8 Symphony No. 2 in D Major, Op. 36: IV. Allegro molto (Arr. for Trio)

foobar2000 1.3.16 / Dynamic Range Meter 1.1.1
log date: 2020-04-26 21:28:02

––––––––––––––––––––––––––––––––––––––––
Analyzed: Beethoven Trio Bonn / Beethoven: Piano Trio Op. 70 No. 2 & Symphony No. 2
––––––––––––––––––––––––––––––––––––––––

DR Peak RMS Duration Track
––––––––––––––––––––––––––––––––––––––––
DR14 -3.13 dB -22.78 dB 10:00 01-Piano Trio No. 6 in E-Flat Major, Op. 70 No. 2: I. Poco sostenuto - Allegro ma non troppo
DR14 -3.06 dB -22.48 dB 5:25 02-Piano Trio No. 6 in E-Flat Major, Op. 70 No. 2: II. Allegretto
DR14 -6.16 dB -26.57 dB 7:26 03-Piano Trio No. 6 in E-Flat Major, Op. 70 No. 2: III. Allegretto ma non troppo
DR13 -2.39 dB -20.61 dB 7:53 04-Piano Trio No. 6 in E-Flat Major, Op. 70 No. 2: IV. Finale. Allegro
DR15 -0.50 dB -19.32 dB 12:32 05-Symphony No. 2 in D Major, Op. 36: I. Adagio molto (Arr. for Trio)
DR15 -2.22 dB -24.00 dB 11:45 06-Symphony No. 2 in D Major, Op. 36: II. Larghetto (Arr. for Trio)
DR16 -0.77 dB -20.90 dB 3:37 07-Symphony No. 2 in D Major, Op. 36: III. Scherzo. Allegro - Trio (Arr. for Trio)
DR14 -0.71 dB -19.90 dB 6:43 08-Symphony No. 2 in D Major, Op. 36: IV. Allegro molto (Arr. for Trio)
––––––––––––––––––––––––––––––––––––––––

Number of tracks: 8
Official DR value: DR15

Samplerate: 48000 Hz
Channels: 2
Bits per sample: 24
Bitrate: 1399 kbps
Codec: FLAC
================================================================================



Thanks to the Original customer.