Please register here if you want to download anything!

If domain in your address bar is different from the list below
PLEASE LEAVE THAT SITE IMMEDIATELY
❗IT'S A DANGEROUS FAKE❗



Spicy Magazines for Men! ;-)

Alexandre Bloch, Orchestre National De Lille, Annelien van Wauwe - Belle époque (2019) [Official Digital Download 24/96]

Posted By: SERTiL
Alexandre Bloch, Orchestre National De Lille, Annelien van Wauwe - Belle époque (2019) [Official Digital Download 24/96]

Alexandre Bloch, Orchestre National De Lille, Annelien van Wauwe - Belle époque (2019)
FLAC (tracks) 24-bit/96 kHz | Time - 59:43 minutes | 1.07 GB
Studio Master, Official Digital Download | Artwork: Digital Booklet

Belgian clarinettist Annelien Van Wauwe revives the golden glow of a bygone age on her PENTATONE debut album Belle époque, together with the Orchestre National de Lille and its music director Alexandre Bloch. The programme is built around treasures of French turn-of-thecentury music such as Debussy’s Première Rhapsodie, Pierné’s Canzonetta and Widor’s Introduction et Rondo (the latter two in arrangements by Jelle Tassyns). Belle époque also offers works that display a spiritual kinship to the age, such as Brahms’s first clarinet sonata, arranged by Luciano Berio, and a world-premiere recording of Parisbased contemporary composer Manfred Trojahn (Rhapsodie pour clarinette et orchestre).

Annelien van Wauwe is a former BBC New Generation Artist and winner of the renowned Borletti-Buitoni Trust Award 2018. She kickstarts an exclusive collaboration with PENTATONE with this first solo album. The Orchestre National de Lille and Alexandre Bloch release their second PENTATONE album, after their 2018 recording of Bizet’s Les Pêcheurs de perles, crowned with a Diapason d’or.

Tracklist:
1. Première rhapsodie, L. 116 (Version for Clarinet & Orchestra)
2. Rhapsodie pour clarinette et orchestre: I. Rêverie
3. Rhapsodie pour clarinette et orchestre: II. Intermède avec valse à la musette
4. Rhapsodie pour clarinette et orchestre: III. Caprice
5. Canzonetta in E-Flat Major, Op. 19 (Arr. J. Tassyns for Clarinet & Orchestra)
6. Clarinet Sonata in F Minor, Op. 120 No. 1 (Arr. L. Berio for Clarinet & Orchestra): I. Allegro appassionato
7. Clarinet Sonata in F Minor, Op. 120 No. 1 (Arr. L. Berio for Clarinet & Orchestra): II. Andante un poco adagio
8. Clarinet Sonata in F Minor, Op. 120 No. 1 (Arr. L. Berio for Clarinet & Orchestra): III. Allegretto grazioso
9. Clarinet Sonata in F Minor, Op. 120 No. 1 (Arr. L. Berio for Clarinet & Orchestra): IV. Vivace
10. Introduction et rondo, Op. 72 (Arr. J. Tassyns for Clarinet & Orchestra)

Personnel:
Annelien Van Wauwe (clarinet)
Orchestre National de Lille
Alexandre Bloch (conductor)

foobar2000 1.3.7 / Dynamic Range Meter 1.1.1
log date: 2019-08-13 19:24:06

––––––––––––––––––––––––––––––––––––––––
Analyzed: Annelien Van Wauwe, Orchestre National de Lille & Alexandre Bloch / Belle époque
––––––––––––––––––––––––––––––––––––––––

DR Peak RMS Duration Track
––––––––––––––––––––––––––––––––––––––––
DR15 -4.01 dB -27.45 dB 7:41 01-Première rhapsodie, L. 116 (Version for Clarinet & Orchestra)
DR17 -4.25 dB -26.81 dB 8:41 02-Rhapsodie pour clarinette et orchestre: I. Rêverie
DR12 -14.69 dB -31.26 dB 4:48 03-Rhapsodie pour clarinette et orchestre: II. Intermède avec valse à la musette
DR15 -3.87 dB -26.17 dB 4:36 04-Rhapsodie pour clarinette et orchestre: III. Caprice
DR12 -8.63 dB -28.96 dB 3:43 05-Canzonetta in E-Flat Major, Op. 19 (Arr. J. Tassyns for Clarinet & Orchestra)
DR15 -3.78 dB -23.97 dB 8:01 06-Clarinet Sonata in F Minor, Op. 120 No. 1 (Arr. L. Berio for Clarinet & Orchestra): I. Allegro appassionato
DR13 -7.91 dB -29.18 dB 5:22 07-Clarinet Sonata in F Minor, Op. 120 No. 1 (Arr. L. Berio for Clarinet & Orchestra): II. Andante un poco adagio
DR13 -6.99 dB -26.42 dB 4:06 08-Clarinet Sonata in F Minor, Op. 120 No. 1 (Arr. L. Berio for Clarinet & Orchestra): III. Allegretto grazioso
DR13 -4.21 dB -23.59 dB 5:13 09-Clarinet Sonata in F Minor, Op. 120 No. 1 (Arr. L. Berio for Clarinet & Orchestra): IV. Vivace
DR15 -0.26 dB -23.18 dB 7:37 10-Introduction et rondo, Op. 72 (Arr. J. Tassyns for Clarinet & Orchestra)
––––––––––––––––––––––––––––––––––––––––

Number of tracks: 10
Official DR value: DR14

Samplerate: 96000 Hz
Channels: 2
Bits per sample: 24
Bitrate: 2614 kbps
Codec: FLAC
================================================================================


Thanks to the Original customer.