Leonard Bernstein - Bernstein: Symphony No.1 "Jeremiah" & No.2 "The Age of Anxiety" (1978/2017) [24/96]

Posted By: SERTiL
Leonard Bernstein - Bernstein: Symphony No.1 "Jeremiah" & No.2 "The Age of Anxiety" (1978/2017) [24/96]

Christa Ludwig, Lukas Foss, Israel Philharmonic Orchestra & Leonard Bernstein - Bernstein: Symphony No.1 "Jeremiah" & No.2 "The Age of Anxiety" (1978/2017)
FLAC (tracks) 24-bit/96 kHz | Time - 60:15 minutes | 1.01 GB
Studio Master, Official Digital Download | Artwork: Front Cover

Leonard Bernstein's association with the Israel Philharmonic began early in his career as a conductor and composer, and in 1977 the orchestra organized a Bernstein Festival to mark the 30th anniversary of their first concert together. The festival lasted two weeks and consisted solely of works composed by Bernstein. Later that same year, in August of 1977, they appeared together at the Berlin Festival, which is when (and where) these live performances were recorded.

The Chichester Psalms were unfamiliar to me until I acquired this disk. They were originally commissioned for the 1965 Chichester Cathedral's annual festival. The texts are in Hebrew and include extracts from six different psalms. Bernstein himself called them "perhaps the most tonal score I've ever written". They are written for mixed choir, boy soloist and orchestra. The world premiere performance took place on July 15, 1965 in the Philharmonic Hall, New York and with Bernstein conducting, two weeks before the actual performance in the Chichester Festival. The performance on this CD is the full orchestral version with the Vienna Boys' Choir performing superbly. Listening to them for the first time I am captivated by the beauty of the performance.

His Symphony No. 1, "Jeremiah", originally premiered in 1944 and won the New York Music Critics Circle annual award (this was the year immediately following his stunning triumph of November, 1943 when he was called upon at short notice to fill in for Bruno Walter and led the New York Philharmonic to great acclaim). Symphony No. 2, "The Age of Anxiety", was written just a few years later, during the period 1947-49, and is an orchestral work that represents the composers interpretation of Auden's poem The Age of Anxiety. Lukas Foss is the piano soloist for the second symphony. The performances of both symphonies on this CD are excellent, particularly Christa Ludwig in the final movement of "Jeremiah".

Tracklist:
1. Symphony No.1 "Jeremiah" : 1. Prophecy: Largamente 07:14
2. Symphony No.1 "Jeremiah" : 2. Profanation: Vivace con brio 06:52
3. Symphony No.1 "Jeremiah" : 3. Lamentation: Lento 10:37
4. Symphony No.2 "The Age Of Anxiety" / Part 1 : 1. The Prologue. Lento moderato 02:20
5. Symphony No.2 "The Age Of Anxiety" / Part 1 : 2. The Seven Ages. Var. I-VII 08:14
6. Symphony No.2 "The Age Of Anxiety" / Part 1 : 3. The Seven Stages. Var. VIII-XIV 06:06
7. Symphony No.2 "The Age Of Anxiety" / Part 2 : 1. The Dirge. Largo 05:59
8. Symphony No.2 "The Age Of Anxiety" / Part 2 : 2. The Masque. Extremely Fast 04:43
9. Symphony No.2 "The Age Of Anxiety" / Part 2 : 3. The Epilogue. L'istesso tempo - Adagio - Andante - Con moto 08:10

Personnel:
Christa Ludwig, soprano (on tracks 3)
Lukas Foss, piano (on tracks 4-9)
Wiener Jeunesse-Chor
Günther Theuring, Chorus Master
Israel Philharmonic Orchestra
Leonard Bernstein, conductor

Digitally remastered

foobar2000 1.3.7 / Dynamic Range Meter 1.1.1
log date: 2018-12-31 17:40:16

––––––––––––––––––––––––––––––––––––––––
Analyzed: Christa Ludwig / Bernstein: Symphony No.1 "Jeremiah" & No.2 "The Age of Anxiety" (Remastered) (1)
Israel Philharmonic Orchestra / Bernstein: Symphony No.1 "Jeremiah" & No.2 "The Age of Anxiety" (Remastered) (2-3)
Lukas Foss / Bernstein: Symphony No.1 "Jeremiah" & No.2 "The Age of Anxiety" (Remastered) (4-9)
––––––––––––––––––––––––––––––––––––––––

DR Peak RMS Duration Track
––––––––––––––––––––––––––––––––––––––––
DR14 -1.18 dB -24.24 dB 10:38 03-Symphony No.1 'Jeremiah' - 3. Lamentation- Lento
DR14 -2.45 dB -22.21 dB 7:15 01-Symphony No.1 'Jeremiah' - 1. Prophecy- Largamente
DR14 -0.52 dB -19.76 dB 6:53 02-Symphony No.1 'Jeremiah' - 2. Profanation- Vivace con brio
DR10 -26.58 dB -41.88 dB 2:21 04-Symphony No.2 'The Age Of Anxiety' _ Part 1 - 1. The Prologue. Lento moderato
DR15 -1.44 dB -25.80 dB 8:15 05-Symphony No.2 'The Age Of Anxiety' _ Part 1 - 2. The Seven Ages. Var. I-VII
DR14 -1.10 dB -20.88 dB 6:06 06-Symphony No.2 'The Age Of Anxiety' _ Part 1 - 3. The Seven Stages. Var. VIII-XIV
DR14 -1.99 dB -22.14 dB 5:59 07-Symphony No.2 'The Age Of Anxiety' _ Part 2 - 1. The Dirge. Largo
DR15 -2.31 dB -22.04 dB 4:43 08-Symphony No.2 'The Age Of Anxiety' _ Part 2 - 2. The Masque. Extremely Fast
DR13 -1.71 dB -21.25 dB 8:11 09-Symphony No.2 'The Age Of Anxiety' _ Part 2 - 3. The Epilogue. L'istesso tempo - Adagio - Andante - Con moto
––––––––––––––––––––––––––––––––––––––––

Number of tracks: 9
Official DR value: DR14

Samplerate: 96000 Hz
Channels: 2
Bits per sample: 24
Bitrate: 2404 kbps
Codec: FLAC
================================================================================


Thanks to the Original customer.