Birth Control - Bäng! (1982/2018) [Official Digital Download]

Posted By: SERTiL
Birth Control - Bäng! (1982/2018) [Official Digital Download]

Birth Control - Bäng! (1982/2018)
FLAC (tracks) 24-bit/48 kHz | Time - 61:52 minutes | 698 MB
Studio Master, Official Digital Download | Artwork: Front Cover

The 13th Album from Birth Control in 1982 featuring Bruno Frenzel before his demise in 1983. This is the last album before the band split up after eight years together on the road.

BANG! is a 1982 release by German progressive rockers Birth Control, featuring 'Get Ready To Run.'

Tracklist:
1. Nuclear Attack - Album Version (Remastered) 05:03
2. Get Ready To Run (Remastered) 04:08
3. Take Alarm (Remastered) 05:31
4. Greedy Ryes (Remastered) 04:56
5. The Day Of Doom Is Coming (Remastered) 07:56
6. Doom Room (Remastered) 05:17
7. The King Of An Island (Remastered) 06:19
8. Nuclear Attack (Single Version [Remastered]) 03:44
9. Get Ready To Run (Single) (Remastered) 03:50
10. Nuclear Attack (12Inch) (Remastered) 06:32

Personnel:
Bruno Frenzel, guitars, lead vocals (on tracks 3-6)
Jürgen Goldschmidt, bass, backing vocals
Ulrich Klein, keyboards, backing vocals
Stefan Linke, rhythm guitar, vocals
Bernd Noske, lead vocals, drums, percussion

Recorded and mixed May and June 1982 at Dierks-Studios, Cologne
Produced by Jürgen Krämer, Birth Control

Digitally remastered

foobar2000 1.3.7 / Dynamic Range Meter 1.1.1
log date: 2018-06-22 15:09:34

––––––––––––––––––––––––––––––––––––––––
Analyzed: Birth Control / Bäng!
––––––––––––––––––––––––––––––––––––––––

DR Peak RMS Duration Track
––––––––––––––––––––––––––––––––––––––––
DR5 0.00 dB -6.27 dB 5:04 01-Nuclear Attack - Album Version (Remastered)
DR6 0.00 dB -6.56 dB 4:09 02-Get Ready To Run (Remastered)
DR7 0.00 dB -7.73 dB 5:32 03-Take Alarm (Remastered)
DR6 0.00 dB -6.91 dB 4:57 04-Greedy Ryes (Remastered)
DR7 0.00 dB -7.99 dB 7:56 05-The Day Of Doom Is Coming (Remastered)
DR6 0.00 dB -6.80 dB 5:17 06-Doom Room (Remastered)
DR6 0.00 dB -7.55 dB 6:20 07-The King Of An Island (Remastered)
DR6 0.00 dB -7.11 dB 3:44 08-Nuclear Attack (Single Version [Remastered])
DR6 0.00 dB -6.97 dB 3:50 09-Get Ready To Run (Single) (Remastered)
DR6 0.00 dB -7.01 dB 6:33 10-Nuclear Attack (12Inch) (Remastered)
––––––––––––––––––––––––––––––––––––––––

Number of tracks: 10
Official DR value: DR6

Samplerate: 48000 Hz
Channels: 2
Bits per sample: 24
Bitrate: 1840 kbps
Codec: FLAC
================================================================================


Thanks to the Original customer.