Tags
Language
Tags

Black Oak Arkansas: Collection part 02 (1972-1975)

Posted By: v3122
Black Oak Arkansas: Collection part 02 (1972-1975)

Black Oak Arkansas: Collection part 02 (1972-1975)
FLAC (Tracks) 24-bit/96 kHz | Official Digital Download
Southern Rock | RT Industries | ~ 2.61 Gb

~ 1972 - Keep The Faith, 1973 - Raunch N' Roll (Live), 1975 - Ain't Life Grand ~

Black Oak Arkansas is an American Southern rock band named after the band's hometown of Black Oak, Arkansas. The band reached the height of its fame in the 1970s with ten charting albums released in that decade. Their style is punctuated by multiple guitar players and the raspy voice and on-stage antics of vocalist Jim "Dandy" Mangrum.
Following continued diminishing record sales, Jim "Dandy" Mangrum dropped "Arkansas" from the group's name (in an attempt to downplay their Southern-ness).
As "Black Oak" released two albums on Capricorn Records, 'Race with the Devil' in 1977 and 'I'd Rather Be Sailing' in 1978.

~ discogs
Black Oak Arkansas: Collection part 02 (1972-1975)

Black Oak Arkansas: Collection part 02 (1972-1975):

Black Oak Arkansas: Collection part 02 (1972-1975)

1972 - Keep The Faith {24 bit-96 kHz}:

01. Keep The Faith [03:14]
02. Revolutionary All American Bands [03:36]
03. Feet On Earth, Head In Sky [04:11]
04. Fever In My Mind [02:52]
05. The Big One's Still Coming [03:59]
06. White Headed Woman [04:53]
07. We Live On Day To Day [05:17]
08. Short LIfe Line [04:53]
09. Don't Confuse What You Don't Know [04:42]

foobar2000 1.6.8 / Dynamic Range Meter 1.1.1
log date: 2022-05-18 18:19:03

––––––––––––––––––––––––––––––––––––––––
Analyzed: Black Oak Arkansas / Keep The Faith
––––––––––––––––––––––––––––––––––––––––

DR Peak RMS Duration Track
––––––––––––––––––––––––––––––––––––––––
DR10 -0.10 dB -12.23 dB 3:14 01-Keep The Faith
DR11 -0.10 dB -12.34 dB 3:36 02-Revolutionary All American Bands
DR10 -0.10 dB -11.86 dB 4:11 03-Feet On Earth, Head In Sky
DR10 -0.10 dB -11.79 dB 2:52 04-Fever In My Mind
DR11 -0.10 dB -12.71 dB 3:59 05-The Big One's Still Coming
DR11 -0.10 dB -14.62 dB 4:53 06-White Headed Woman
DR10 -0.10 dB -11.94 dB 5:17 07-We Live On Day To Day
DR11 -0.10 dB -13.47 dB 4:53 08-Short LIfe Line
DR10 -0.10 dB -12.24 dB 4:42 09-Don't Confuse What You Don't Know
––––––––––––––––––––––––––––––––––––––––

Number of tracks: 9
Official DR value: DR10

Samplerate: 96000 Hz
Channels: 2
Bits per sample: 24
Bitrate: 3158 kbps
Codec: FLAC

Black Oak Arkansas: Collection part 02 (1972-1975)

1973 - Raunch N' Roll (Live) {24 bit-96 kHz}:

01. Gettin' Kinda Cocky [03:33]
02. When Electricity Came To Arkansas [07:20]
03. Gigolo [03:20]
04. Hot Rod [04:16]
05. Mutants Of The Monster [06:06]
06. Hot And Nasty [04:14]
07. Up [09:17]

foobar2000 1.6.8 / Dynamic Range Meter 1.1.1
log date: 2022-05-18 12:06:15

––––––––––––––––––––––––––––––––––––––––
Analyzed: Black Oak Arkansas / Raunch N' Roll (Live)
––––––––––––––––––––––––––––––––––––––––

DR Peak RMS Duration Track
––––––––––––––––––––––––––––––––––––––––
DR8 -0.87 dB -10.13 dB 3:33 01-Gettin' Kinda Cocky (Live Version)
DR9 -0.01 dB -11.55 dB 7:20 02-When Electricity Came To Arkansas (Live Version)
DR9 -0.01 dB -10.04 dB 3:20 03-Gigolo (Live Version)
DR8 -0.01 dB -10.78 dB 4:16 04-Hot Rod
DR9 -0.01 dB -11.98 dB 6:06 05-Mutants Of The Monster (Live Version)
DR9 -1.01 dB -11.70 dB 4:14 06-Hot And Nasty (Live Version)
DR9 -0.01 dB -11.06 dB 9:17 07-Up (Live Version)
––––––––––––––––––––––––––––––––––––––––

Number of tracks: 7
Official DR value: DR9

Samplerate: 96000 Hz
Channels: 2
Bits per sample: 24
Bitrate: 3155 kbps
Codec: FLAC

Black Oak Arkansas: Collection part 02 (1972-1975)

1975 - Ain't Life Grand {24 bit-96 kHz}:

01. Taxman [03:37]
02. Fancy Nancy [03:20]
03. Keep On [03:30]
04. Good Stuff [03:43]
05. Rebel [04:15]
06. Back Door Man [02:52]
07. Love Can Be Found [03:56]
08. Diggin' For Gold [03:37]
09. Cryin' Shame [03:41]
10. Let Life Be Good To You [03:28]

foobar2000 1.6.8 / Dynamic Range Meter 1.1.1
log date: 2022-05-18 12:06:47

––––––––––––––––––––––––––––––––––––––––
Analyzed: Black Oak Arkansas / Ain't Life Grand
––––––––––––––––––––––––––––––––––––––––

DR Peak RMS Duration Track
––––––––––––––––––––––––––––––––––––––––
DR8 0.00 dB -10.12 dB 3:37 01-Taxman
DR9 0.00 dB -10.01 dB 3:20 02-Fancy Nancy
DR8 -0.01 dB -10.15 dB 3:30 03-Keep On
DR8 0.00 dB -10.14 dB 3:43 04-Good Stuff
DR8 0.00 dB -9.80 dB 4:15 05-Rebel
DR9 0.00 dB -10.70 dB 2:52 06-Back Door Man
DR8 -0.06 dB -10.11 dB 3:56 07-Love Can Be Found
DR11 -0.10 dB -15.00 dB 3:37 08-Diggin' For Gold
DR9 0.00 dB -10.07 dB 3:41 09-Cryin' Shame
DR9 0.00 dB -10.67 dB 3:28 10-Let Life Be Good To You
––––––––––––––––––––––––––––––––––––––––

Number of tracks: 10
Official DR value: DR9

Samplerate: 96000 Hz
Channels: 2
Bits per sample: 24
Bitrate: 3275 kbps
Codec: FLAC

All thanks go to the original releaser

Black Oak Arkansas in my Blog

Download Black Oak Arkansas: Collection part 02 (1972-1975):