Blackfield - Blackfield II (Remastered) (2007/2020) [Official Digital Download]

Posted By: SERTiL
Blackfield - Blackfield II (Remastered) (2007/2020) [Official Digital Download]

Blackfield - Blackfield II (Remastered) (2007/2020)
FLAC (tracks) 24-bit/44.1 kHz | Time - 42:33 minutes | 478 MB
Studio Master, Official Digital Download | Artwork: Front Cover

Two years back and forth on the London-Tel-Aviv flight path, a mutual artistic curiosity, and a close friendship are the components that gave birth to Aviv and Steven's Blackfield project. The collaborative songs alongside songs written by each separately brought a unique meeting of cultures, which resulted in a sophisticated, melodic and melancholic rock album. Aviv and Steven spent the rest of 2005 writing new material and working on their own projects, but in early 2006 Steven moved to Israel for 6 months to enable Blackfield to work on a new album. As on the first album both songwriters composed original songs for Blackfield, but also a few of Aviv's songs previously recorded in Hebrew as a solo artist were selected and translated into English. This time the record was made in one short burst of activity (unlike the sporadic sessions for the first album that spanned 2 years). Using the now established 5 piece Blackfield band line up, the resulting album Blackfield II has a stronger sense of direction and power, and is described as "a collection of 10 perfectly crafted songs of beauty and melancholia, combining great hooks, sweeping strings, explosive guitars, and lush vocal harmonies."

Tracklist:
1. Once (Remastered) (4:05)
2. 1,000 People (Remastered) (3:55)
3. Miss U (Remastered) (4:13)
4. Christenings (Remastered) (4:38)
5. This Killer (Remastered) (4:06)
6. Epidemic (Remastered) (4:59)
7. My Gift of Silence (Remastered) (4:04)
8. Some Day (Remastered) (4:20)
9. Where Is My Love? (Remastered) (2:59)
10. End of the World (Remastered) (5:14)

Personnel:
Aviv Geffen, keyboards, additional guitars, vocals
Steven Wilson, guitars, additional keyboards, vocals
Daniel Salomon, piano
Seffy Efrati, bass
Tomer Z, drums, percussion
Steven Wilson, lead vocals (1, 2, 4, 5, 7, 8)
Aviv Geffen, lead vocals (3)
Steven Wilson and Aviv Geffen, lead vocals (6, 9, 10)
Guest musicians:
Ofer Meiri, additional keyboards and programming on "1,000 People"
Harel Ben-Ami, electric and acoustic guitars on "1,000 People"
Itamar Leshem, french horn on "1,000 People"
Richard Barbieri, electric piano and stylophone on "Christenings"
Gavin Harrison, drums on "Christenings"
Daniela Pick, backing vocals on "Epidemic"
Eran Mitelman, electric piano on "My Gift of Silence"
String arrangements by Aviv Geffen
The Downtown Session Orchestra
Daniel Salomon, direction

Produced by Steven Wilson

Digitally remastered

foobar2000 1.3.7 / Dynamic Range Meter 1.1.1
log date: 2020-02-03 22:33:09

––––––––––––––––––––––––––––––––––––––––
Analyzed: Blackfield / Blackfield II (Remastered)
––––––––––––––––––––––––––––––––––––––––

DR Peak RMS Duration Track
––––––––––––––––––––––––––––––––––––––––
DR9 -0.10 dB -11.93 dB 4:05 01-Once (Remastered)
DR12 -0.10 dB -14.77 dB 3:55 02-1,000 People (Remastered)
DR10 -0.10 dB -12.64 dB 4:13 03-Miss U (Remastered)
DR11 -0.10 dB -13.95 dB 4:38 04-Christenings (Remastered)
DR11 -0.10 dB -13.39 dB 4:06 05-This Killer (Remastered)
DR11 -0.10 dB -13.25 dB 4:59 06-Epidemic (Remastered)
DR12 -0.10 dB -15.27 dB 4:04 07-My Gift of Silence (Remastered)
DR10 -0.10 dB -13.93 dB 4:20 08-Some Day (Remastered)
DR9 -0.10 dB -11.37 dB 2:59 09-Where Is My Love? (Remastered)
DR9 -0.10 dB -11.95 dB 5:14 10-End of the World (Remastered)
––––––––––––––––––––––––––––––––––––––––

Number of tracks: 10
Official DR value: DR10

Samplerate: 44100 Hz
Channels: 2
Bits per sample: 24
Bitrate: 1584 kbps
Codec: FLAC
================================================================================


Thanks to the Original customer.