Tags
Language
Tags

Blue Öyster Cult - Curse of the Hidden Mirror (2001/2020) [Official Digital Download]

Posted By: pyatak
Blue Öyster Cult - Curse of the Hidden Mirror (2001/2020) [Official Digital Download]

Blue Öyster Cult - Curse of the Hidden Mirror (2001/2020) [Official Digital Download]
FLAC (tracks) 24-bit/44.1 kHz | Front Cover | Time - 50:255 minutes | 635 MB
Rock | Label: Frontiers Records s.r.l., Official Digital Download

Curse of the Hidden Mirror is the fourteenth studio album by American hard rock band Blue Öyster Cult, released in 2001. The only single from the record was the poorly received "Pocket". Lackluster sales and poor relations led to the band being dropped by their label, Sanctuary Records.

TRACKLIST

1. Blue Öyster Cult - Dance on Stilts
2. Blue Öyster Cult - Showtime
3. Blue Öyster Cult - The Old Gods Return
4. Blue Öyster Cult - Pocket
5. Blue Öyster Cult - One Step Ahead of the Evil
6. Blue Öyster Cult - I Just Like to Be Bad
7. Blue Öyster Cult - Here Comes That Feeling
8. Blue Öyster Cult - Out of the Darkness
9. Blue Öyster Cult - Stone of Love
10. Blue Öyster Cult - Eye of the Hurricane
11. Blue Öyster Cult - Good to Feel Hungry

foobar2000 1.3.16 / Dynamic Range Meter 1.1.1
log date: 2020-05-06 20:08:36

––––––––––––––––––––––––––––––––––––––––
Analyzed: Blue Öyster Cult / Curse of the Hidden Mirror
––––––––––––––––––––––––––––––––––––––––

DR Peak RMS Duration Track
––––––––––––––––––––––––––––––––––––––––
DR8 -0.28 dB -9.58 dB 6:06 01-Dance on Stilts
DR9 -0.56 dB -10.62 dB 4:39 02-Showtime
DR8 -0.40 dB -10.00 dB 4:36 03-The Old Gods Return
DR9 -0.46 dB -9.89 dB 4:17 04-Pocket
DR8 -0.72 dB -9.41 dB 4:16 05-One Step Ahead of the Evil
DR8 -0.37 dB -9.73 dB 3:54 06-I Just Like to Be Bad
DR8 -0.68 dB -9.96 dB 3:21 07-Here Comes That Feeling
DR8 -0.26 dB -9.38 dB 5:07 08-Out of the Darkness
DR8 -0.59 dB -9.61 dB 5:49 09-Stone of Love
DR8 -0.64 dB -9.30 dB 4:40 10-Eye of the Hurricane
DR8 -0.53 dB -9.78 dB 4:11 11-Good to Feel Hungry
––––––––––––––––––––––––––––––––––––––––

Number of tracks: 11
Official DR value: DR8

Samplerate: 44100 Hz
Channels: 2
Bits per sample: 24
Bitrate: 1716 kbps
Codec: FLAC
================================================================================



Thanks to the Original customer.