Tags
Language
Tags
June 2023
Su Mo Tu We Th Fr Sa
28 29 30 31 1 2 3
4 5 6 7 8 9 10
11 12 13 14 15 16 17
18 19 20 21 22 23 24
25 26 27 28 29 30 1

Bonnie Ferguson - I'll Be There (1976/2022) [Official Digital Download 24/96]

Posted By: pyatak
Bonnie Ferguson - I'll Be There (1976/2022) [Official Digital Download 24/96]

Bonnie Ferguson - I'll Be There (1976/2022) [Official Digital Download 24/96]
FLAC (tracks) 24-bit/96 kHz | Front Cover | Time - 31:23 minutes | 576 MB
Folk | Label: Ovation Records, Official Digital Download

Bonnie Ferguson released her folk album on Ovation Records in 1974.

TRACKLIST

1. Bonnie Ferguson - (Baby) I'll Be There
2. Bonnie Ferguson - Teardrops and the "I Love Yous"
3. Bonnie Ferguson - I Won't Be Coming Home Tonight
4. Bonnie Ferguson - I'd Really Love to See You Tonight
5. Bonnie Ferguson - South's Gonna Do It
6. Bonnie Ferguson - What's Left to Say
7. Bonnie Ferguson - You Need My Love
8. Bonnie Ferguson - Big in Vegas
9. Bonnie Ferguson - Up to You
10. Bonnie Ferguson - Love Revival

foobar2000 1.6.2 / Dynamic Range Meter 1.1.1
log date: 2022-02-22 17:22:56

––––––––––––––––––––––––––––––––––––––––
Analyzed: Bonnie Ferguson / I'll Be There
––––––––––––––––––––––––––––––––––––––––

DR Peak RMS Duration Track
––––––––––––––––––––––––––––––––––––––––
DR13 -1.22 dB -17.15 dB 2:51 01-(Baby) I'll Be There
DR14 -1.22 dB -16.57 dB 2:41 02-Teardrops and the "I Love Yous"
DR14 -1.23 dB -19.10 dB 4:18 03-I Won't Be Coming Home Tonight
DR13 -1.29 dB -16.61 dB 2:47 04-I'd Really Love to See You Tonight
DR13 -1.22 dB -15.99 dB 3:13 05-South's Gonna Do It
DR13 -1.21 dB -17.04 dB 2:58 06-What's Left to Say
DR12 -1.22 dB -15.23 dB 2:37 07-You Need My Love
DR13 -1.22 dB -16.60 dB 3:53 08-Big in Vegas
DR12 -2.56 dB -17.80 dB 3:28 09-Up to You
DR13 -1.22 dB -15.74 dB 2:54 10-Love Revival
––––––––––––––––––––––––––––––––––––––––

Number of tracks: 10
Official DR value: DR13

Samplerate: 96000 Hz
Channels: 2
Bits per sample: 24
Bitrate: 2594 kbps
Codec: FLAC
================================================================================



Thanks to the Original customer.