Tags
Language
Tags
November 2022
Su Mo Tu We Th Fr Sa
30 31 1 2 3 4 5
6 7 8 9 10 11 12
13 14 15 16 17 18 19
20 21 22 23 24 25 26
27 28 29 30 1 2 3

Booker Little And His Quintet feat. Max Roach - Out Front (Remastered) (1961/2022) [Official Digital Download 24/192]

Posted By: pyatak
Booker Little And His Quintet feat. Max Roach - Out Front (Remastered) (1961/2022) [Official Digital Download 24/192]

Booker Little And His Quintet feat. Max Roach - Out Front (Remastered) (1961/2022) [Official Digital Download 24/192]
FLAC (tracks) 24-bit/192 kHz | Front Cover | Time - 44:00 minutes | 1,85 GB
Jazz | Studio Master, Official Digital Download

Out Front is a 1961 album by American jazz trumpeter Booker Little featuring performances recorded and released by the Candid label.

The AllMusic review by Scott Yanow stated "His seven now-obscure originals (several of which deserve to be revived) are challenging for the soloists and there are many strong moments during these consistently challenging and satisfying performances".

TRACKLIST

1. Booker Little And His Quintet - We Speak (Remastered)
2. Booker Little And His Quintet - Strength And Sanity (Remastered)
3. Booker Little And His Quintet - Quiet Please (Remastered)
4. Booker Little And His Quintet - Moods In Free Time (Remastered)
5. Booker Little And His Quintet - Man Of Words (Remastered)
6. Booker Little And His Quintet - Hazy Blues (Remastered)
7. Booker Little And His Quintet - A New Day (Remastered)

foobar2000 1.6.2 / Dynamic Range Meter 1.1.1
log date: 2022-08-25 16:17:03

––––––––––––––––––––––––––––––––––––––––
Analyzed: Booker Little And His Quintet / Out Front
––––––––––––––––––––––––––––––––––––––––

DR Peak RMS Duration Track
––––––––––––––––––––––––––––––––––––––––
DR11 -1.18 dB -15.43 dB 6:47 01-We Speak (Remastered)
DR10 -1.55 dB -15.93 dB 6:18 02-Strength And Sanity (Remastered)
DR11 0.00 dB -15.29 dB 8:10 03-Quiet Please (Remastered)
DR12 -1.58 dB -15.99 dB 5:43 04-Moods In Free Time (Remastered)
DR12 -1.69 dB -19.60 dB 4:52 05-Man Of Words (Remastered)
DR12 -0.41 dB -14.88 dB 6:41 06-Hazy Blues (Remastered)
DR11 0.00 dB -14.22 dB 5:30 07-A New Day (Remastered)
––––––––––––––––––––––––––––––––––––––––

Number of tracks: 7
Official DR value: DR11

Samplerate: 192000 Hz
Channels: 2
Bits per sample: 24
Bitrate: 6172 kbps
Codec: FLAC
================================================================================



Thanks to the Original customer.