Elizabeth Dobbin & Le Jardin Secret - Bousset: Airs sérieux (2016) [Official Digital Download]

Posted By: SERTiL
Elizabeth Dobbin & Le Jardin Secret - Bousset: Airs sérieux (2016) [Official Digital Download]

Elizabeth Dobbin & Le Jardin Secret - Bousset: Airs sérieux (2016)
FLAC (tracks) 24-bit/48 kHz | Time - 56:30 minutes | 547 MB
Studio Master, Official Digital Download | Artwork: Digital booklet

In 1724, Sébastien de Brossard hailed Jean-Baptiste Drouard de Bousset as ‘indisputably the best of our composer-authors’. Although, at the beginning of the 18th century, the Master of Music at the Académies des Sciences et des Inscriptions imposed himself as the unquestionable leader of the genre, his 875 airs sérieux are little known nowadays and deserve to be brought back into the light. Such is the desire of Elizabeth Dobbin and the ensemble Le Jardin Secret, who recreate with artistry and intelligence the ‘noble, pleasant and natural’ songs of the composer, described by Titon du Tillet in his Parnasse françois (1732). Reflecting the traditions of the 17th and 18th centuries, the musicians have included improvised passages in their performance of these airs and, in particular, chosen to accompany the voice with two theorbos and viola da gamba, instruments that Bousset owned when he died.

TRACKLIST

Jean-Baptiste Drouard de Bousset (1662-1725)

01. O toy, qui présides aux chants - Le Jardin Secret, Elizabeth Dobbin
02. En amour une chansonnette - Le Jardin Secret, Elizabeth Dobbin
03. Heureux qui de ses jours - Le Jardin Secret, Elizabeth Dobbin, Nicholas Milne, Takeshi Sudo
04. Importune raison - Le Jardin Secret, Elizabeth Dobbin
05. Nuit charmante - Le Jardin Secret, Elizabeth Dobbin
06. Tu crains d'être avec moi seulette - Le Jardin Secret, Elizabeth Dobbin, Nicholas Milne
07. Hélas faible raison, qu'estes vous devenue - Le Jardin Secret, Elizabeth Dobbin
08. Iris, vous êtes jeune et belle - Le Jardin Secret, Elizabeth Dobbin, Nicholas Milne
09. Dans la saison nouvelle - Le Jardin Secret, Elizabeth Dobbin, Nicholas Milne, Takeshi Sudo
10. Symphonie choisie - Le Jardin Secret, Elizabeth Dobbin, Nicholas Milne, Takeshi Sudo
11. C'est dans ces lieux qu'on voit l'amour se plaire - Le Jardin Secret, Elizabeth Dobbin
12. J'aime à revoir ces bois et ces ruisseaux - Le Jardin Secret, Elizabeth Dobbin
13. Par hazard sur la fougère - Le Jardin Secret, Elizabeth Dobbin
14. J'aime Sylvie - Le Jardin Secret, Elizabeth Dobbin
15. Chers témoins d'un amour trop fidelle et trop tendre - Le Jardin Secret, Elizabeth Dobbin
16. Charmante nuit - Le Jardin Secret, Elizabeth Dobbin
17. De toutes les saisons, l'hiver s'est rendu maître - Le Jardin Secret, Elizabeth Dobbin
18. Aimer Iris - Le Jardin Secret, Elizabeth Dobbin
19. Sombre forest - Le Jardin Secret, Elizabeth Dobbin, Nicholas Milne, Takeshi Sudo
20. J'ay quitté vos beaux yeux sans quitté mon amour - Le Jardin Secret, Elizabeth Dobbin, Nicholas Milne, Takeshi Sudo

Le Jardin Secret:
Elizabeth Dobbin, soprano
Mike Fentross, baroque guitar, theorbo
Jadran Duncumb, theorbo
Romina Lischka, treble viol, bass viol
Additional musicians:
Nicholas Milne, treble viol, bass viol (on tracks 3, 6, 8, 9, 10, 19, 20)
Takeshi Sudo, bass viol (on tracks 3, 9, 10, 19, 20)

foobar2000 1.3.7 / Dynamic Range Meter 1.1.1
log date: 2017-09-23 17:15:18

––––––––––––––––––––––––––––––––––––––––
Analyzed: Le Jardin Secret, Elizabeth Dobbin, Nicholas Milne, Takeshi Sudo / Bousset: Airs sérieux (1-5)
Le Jardin Secret, Elizabeth Dobbin, Nicholas Milne / Bousset: Airs sérieux (6-7)
Le Jardin Secret, Elizabeth Dobbin / Bousset: Airs sérieux (8-20)
––––––––––––––––––––––––––––––––––––––––

DR Peak RMS Duration Track
––––––––––––––––––––––––––––––––––––––––
DR14 -6.93 dB -26.74 dB 2:13 03-Heureux qui de ses jours
DR14 -0.15 dB -20.12 dB 2:00 09-Dans la saison nouvelle
DR13 -10.55 dB -26.62 dB 1:43 10-Symphonie choisie
DR12 -1.21 dB -22.80 dB 3:19 19-Sombre forest
DR16 -1.30 dB -22.29 dB 2:27 20-J'ay quitté vos beaux yeux sans quitté mon amour
DR12 -12.16 dB -29.18 dB 2:59 06-Tu crains d'être avec moi seulette
DR12 -11.49 dB -28.26 dB 1:30 08-Iris, vous êtes jeune et belle
DR13 -1.89 dB -21.11 dB 4:00 01-O toy, qui présides aux chants
DR16 -0.09 dB -22.79 dB 2:16 02-En amour une chansonnette
DR15 -4.02 dB -25.71 dB 2:03 04-Importune raison
DR13 -4.96 dB -23.73 dB 2:53 05-Nuit charmante
DR12 -3.43 dB -22.36 dB 3:12 07-Hélas faible raison, qu'estes vous devenue
DR14 -3.83 dB -23.63 dB 1:26 11-C'est dans ces lieux qu'on voit l'amour se plaire
DR14 -1.23 dB -22.88 dB 4:14 12-J'aime à revoir ces bois et ces ruisseaux
DR16 -0.10 dB -23.25 dB 3:58 13-Par hazard sur la fougère
DR14 -19.64 dB -37.05 dB 1:29 14-J'aime Sylvie
DR13 -3.79 dB -23.71 dB 2:39 15-Chers témoins d'un amour trop fidelle et trop tendre
DR15 -2.41 dB -23.54 dB 5:02 16-Charmante nuit
DR14 -4.87 dB -25.43 dB 3:30 17-De toutes les saisons, l'hiver s'est rendu maître
DR15 -8.30 dB -27.89 dB 3:47 18-Aimer Iris
––––––––––––––––––––––––––––––––––––––––

Number of tracks: 20
Official DR value: DR14

Samplerate: 48000 Hz
Channels: 2
Bits per sample: 24
Bitrate: 1392 kbps
Codec: FLAC
================================================================================


Thanks to the Original customer.