Tags
Language
Tags

Boyz II Men - II (1994/2021) [Official Digital Download 24/96]

Posted By: pyatak
Boyz II Men - II (1994/2021) [Official Digital Download 24/96]

Boyz II Men - II (1994/2021) [Official Digital Download 24/96]
FLAC (tracks) 24-bit/96 kHz | Front Cover | Time - 61:34 minutes | 1,36 GB
Pop | Label: Motown, Official Digital Download

With their second album, II, Boyz II Men assured their place at the top of the charts, as well as history. "I'll Make Love to You," the album's first single, stayed on the top of the charts for over two months, only to be unseated by "On Bended Knee," the album's second single. Not surprisingly, II is a carefully constructed crowd pleaser, accentuating all of the finest moments from their hit debut. While there are some high-energy dance tracks, the album's main strength is its slower numbers, where the group's vocals soar.

TRACKLIST

1. Boyz II Men - Thank You
2. Boyz II Men - All Around The World
3. Boyz II Men - U Know
4. Boyz II Men - Vibin'
5. Boyz II Men - I Sit Away
6. Boyz II Men - Jezzebel
7. Boyz II Men - Khalil
8. Boyz II Men - Trying Times
9. Boyz II Men - I'll Make Love To You
10. Boyz II Men - On Bended Knee
11. Boyz II Men - 50 Candles
12. Boyz II Men - Water Runs Dry
13. Boyz II Men - Yesterday
14. Boyz II Men - Fallin'

foobar2000 1.6.2 / Dynamic Range Meter 1.1.1
log date: 2021-01-28 17:15:56

––––––––––––––––––––––––––––––––––––––––
Analyzed: Boyz II Men / II
––––––––––––––––––––––––––––––––––––––––

DR Peak RMS Duration Track
––––––––––––––––––––––––––––––––––––––––
DR9 -0.20 dB -10.72 dB 4:35 01-Thank You
DR7 -0.20 dB -9.09 dB 4:55 02-All Around The World
DR8 -0.20 dB -9.76 dB 4:46 03-U Know
DR9 -0.20 dB -10.72 dB 4:27 04-Vibin'
DR10 -0.20 dB -11.77 dB 4:34 05-I Sit Away
DR8 -0.20 dB -9.64 dB 6:07 06-Jezzebel
DR13 -0.25 dB -17.24 dB 1:39 07-Khalil
DR9 -0.20 dB -11.16 dB 5:23 08-Trying Times
DR8 -0.20 dB -10.36 dB 3:57 09-I'll Make Love To You
DR8 -0.20 dB -9.53 dB 5:30 10-On Bended Knee
DR10 -0.20 dB -12.27 dB 5:06 11-50 Candles
DR9 -0.20 dB -11.52 dB 3:21 12-Water Runs Dry
DR10 -0.45 dB -12.80 dB 3:09 13-Yesterday
DR9 -0.20 dB -10.62 dB 4:08 14-Fallin'
––––––––––––––––––––––––––––––––––––––––

Number of tracks: 14
Official DR value: DR9

Samplerate: 96000 Hz
Channels: 2
Bits per sample: 24
Bitrate: 3180 kbps
Codec: FLAC
================================================================================



Thanks to the Original customer.