Marco Schiavo & Sergio Marchegiani - Brahms: Hungarian Dances - Waltzes, Op. 39 (2018) [Official Digital Download 24/96]

Posted By: SERTiL
Marco Schiavo & Sergio Marchegiani - Brahms: Hungarian Dances - Waltzes, Op. 39 (2018) [Official Digital Download 24/96]

Marco Schiavo & Sergio Marchegiani - Brahms: Hungarian Dances - Waltzes, Op. 39 (2018)
FLAC (tracks) 24-bit/96 kHz | Time - 71:01 minutes | 1.15 GB
Studio Master, Official Digital Download | Artwork: Front Cover

Brahms showed an early interest in Hungarian gypsy music, to which he had been introduced by his early acquaintance with Remenyi and his continuing friendship with Joseph Joachim, whose background was similar. In the 1850 she played gypsy melodies on the piano, some of which were never written down. The group of ten Hungarian Dances for solo piano was published in 1872, after earlier rejection of a smaller group of dances by a less acute publisher than Simrock, who issued the first set of dances in a piano duet version in 1869. It is thought that the original version was for solo piano, a form in which they had clearly long been known to those in Brahms's circle of friends. To the composer these dances were arrangements of what was then thought to be Hungarian folk music, although later research, in particular by Bela Bartók and Zoltan Kodaly was to establish this kind of music as simply part of popular Hungarian art music. Whatever the derivation of their rhythmic and melodic material, some of it remembered from the playing of Remenyi or heard in casual cafe performance, the Hungarian Dances are unmistakably stamped with the musical personality of Brahms.

The set of ten Hungarian dances opens with the famous G minor dance, followed by a D minor dance, with a central D major episode, and a third in D minor, with a lively D major middle section. The fourth dance, in F sharp minor, is of a more expressive cast, leading to a more passionate companion in the same key. The sixth of the set, in D flat major, frames a slower C sharp minor section in livelier outer sections, leading to the rhythmic seventh dance and an eighth in A minor in the rhythm of the first. A dance in E minor is succeeded by the final rapid E major that rounds of the work.

The sixteen Waltzes that form Opus 39 were written in Vienna in 1864 and published two years later with a dedication to the critic Eduard Hanslick, who welcomed such an unexpected gift from a serious, North German composer, who might have been supposed incapable of such Viennese abandon. If the great symphonies of Brahms continue the tradition of Schubert, they may be imagined as a tribute to the city where the compose was now to make his home.

The original version seems to be that for piano duet, a form that had an immediate popular commercial attraction and would have provided Hanslick with music to share with young ladies of his acquaintance, with whom he was accustomed to play duets. The Waltzes are in a simpler and shorter form than the slightly more complex Hungarian Dances.

Tracklist:
01. Brahms: 21 Hungarian Dances, WoO 1-for Piano Duet-No. 1 in G minor (Allegro molto)
02. Brahms: 21 Hungarian Dances, WoO 1-for Piano Duet-No. 2 in D minor (Allegro non assai)
03. Brahms: 21 Hungarian Dances, WoO 1-for Piano Duet-No. 3 in F (Allegretto)
04. Brahms: 21 Hungarian Dances, WoO 1-for Piano Duet-No. 4 in F minor (Poco sostenuto)
05. Brahms: 21 Hungarian Dances, WoO 1-for Piano Duet-No. 5 in F sharp minor (Allegro)
06. Brahms: 21 Hungarian Dances, WoO 1-for Piano Duet-No. 6 in D flat (Vivace)
07. Brahms: 21 Hungarian Dances, WoO 1-for Piano Duet-No. 7 in A (Allegretto)
08. Brahms: 21 Hungarian Dances, WoO 1-for Piano Duet-No. 8 in A minor (Presto)
09. Brahms: 21 Hungarian Dances, WoO 1-for Piano Duet-No. 9 in E minor (Allegro non troppo)
10. Brahms: 21 Hungarian Dances, WoO 1-for Piano Duet-No. 10 in E (Presto)
11. Brahms: 21 Hungarian Dances, WoO 1-for Piano Duet-No. 11 in A minor (Poco andante)
12. Brahms: 21 Hungarian Dances, WoO 1-for Piano Duet-No. 12 in D minor (Presto)
13. Brahms: 21 Hungarian Dances, WoO 1-for Piano Duet-No. 13 in D (Andantino grazioso)
14. Brahms: 21 Hungarian Dances, WoO 1-for Piano Duet-No. 14 in D minor (Un poco andante)
15. Brahms: 21 Hungarian Dances, WoO 1-for Piano Duet-No. 15 in B flat (Allegretto grazioso)
16. Brahms: 21 Hungarian Dances, WoO 1-for Piano Duet-No. 16 in F minor / major (Con moto)
17. Brahms: 21 Hungarian Dances, WoO 1-for Piano Duet-No. 17 in F sharp minor (Andantino)
18. Brahms: 21 Hungarian Dances, WoO 1-for Piano Duet-No. 18 in D (Molto vivace)
19. Brahms: 21 Hungarian Dances, WoO 1-for Piano Duet-No. 19 in B minor (Allegretto)
20. Brahms: 21 Hungarian Dances, WoO 1-for Piano Duet-No. 20 in E minor (Poco allegretto)
21. Brahms: 21 Hungarian Dances, WoO 1-for Piano Duet-No. 21 in E minor (Vivace)
22. Brahms: 16 Waltzes, Op.39-For Piano Duet-1. in B
23. Brahms: 16 Waltzes, Op.39-For Piano Duet-2. in E
24. Brahms: 16 Waltzes, Op.39-For Piano Duet-3. in G sharp minor
25. Brahms: 16 Waltzes, Op.39-For Piano Duet-4. in E minor
26. Brahms: 16 Waltzes, Op.39-For Piano Duet-5. in E
27. Brahms: 16 Waltzes, Op.39-For Piano Duet-6. in C sharp
28. Brahms: 16 Waltzes, Op.39-For Piano Duet-7. in C sharp minor
29. Brahms: 16 Waltzes, Op.39-For Piano Duet-8. in B flat
30. Brahms: 16 Waltzes, Op.39-For Piano Duet-9. in D minor
31. Brahms: 16 Waltzes, Op.39-For Piano Duet-10. in G
32. Brahms: 16 Waltzes, Op.39-For Piano Duet-11. in B minor
33. Brahms: 16 Waltzes, Op.39-For Piano Duet-12. in E
34. Brahms: 16 Waltzes, Op.39-For Piano Duet-13. in C
35. Brahms: 16 Waltzes, Op.39-For Piano Duet-14. in A minor
36. Brahms: 16 Waltzes, Op.39-For Piano Duet-15. in A
37. Brahms: 16 Waltzes, Op.39-For Piano Duet-16. in D minor

foobar2000 1.3.7 / Dynamic Range Meter 1.1.1
log date: 2018-12-03 15:39:28

––––––––––––––––––––––––––––––––––––––––
Analyzed: Marco Schiavo, Sergio Marchegiani / Brahms: Hungarian Dances - Waltzes Op. 39
––––––––––––––––––––––––––––––––––––––––

DR Peak RMS Duration Track
––––––––––––––––––––––––––––––––––––––––
DR13 -0.72 dB -19.76 dB 2:58 01-21 Hungarian Dances, WoO 1 - for Piano Duet : No. 1 in G minor (Allegro molto)
DR13 -0.79 dB -18.23 dB 3:32 02-21 Hungarian Dances, WoO 1 - for Piano Duet : No. 2 in D minor (Allegro non assai)
DR15 -1.20 dB -22.67 dB 2:22 03-21 Hungarian Dances, WoO 1 - for Piano Duet : No. 3 in F (Allegretto)
DR13 -0.82 dB -18.93 dB 4:12 04-21 Hungarian Dances, WoO 1 - for Piano Duet : No. 4 in F minor (Poco sostenuto)
DR15 -0.72 dB -19.53 dB 2:26 05-21 Hungarian Dances, WoO 1 - for Piano Duet : No. 5 in F sharp minor (Allegro)
DR15 -0.72 dB -19.36 dB 3:24 06-21 Hungarian Dances, WoO 1 - for Piano Duet : No. 6 in D flat (Vivace)
DR14 -1.12 dB -20.64 dB 1:41 07-21 Hungarian Dances, WoO 1 - for Piano Duet : No. 7 in A (Allegretto)
DR14 -1.10 dB -19.08 dB 2:42 08-21 Hungarian Dances, WoO 1 - for Piano Duet : No. 8 in A minor (Presto)
DR14 -2.32 dB -21.77 dB 2:43 09-21 Hungarian Dances, WoO 1 - for Piano Duet : No. 9 in E minor (Allegro non troppo)
DR13 -2.28 dB -18.75 dB 2:00 10-21 Hungarian Dances, WoO 1 - for Piano Duet : No. 10 in E (Presto)
DR14 -4.29 dB -24.37 dB 3:19 11-21 Hungarian Dances, WoO 1 - for Piano Duet : No. 11 in A minor (Poco andante)
DR12 -0.91 dB -18.76 dB 2:19 12-21 Hungarian Dances, WoO 1 - for Piano Duet : No. 12 in D minor (Presto)
DR15 -1.51 dB -23.77 dB 1:39 13-21 Hungarian Dances, WoO 1 - for Piano Duet : No. 13 in D (Andantino grazioso)
DR12 -3.31 dB -20.25 dB 1:35 14-21 Hungarian Dances, WoO 1 - for Piano Duet : No. 14 in D minor (Un poco andante)
DR13 -1.43 dB -19.62 dB 2:40 15-21 Hungarian Dances, WoO 1 - for Piano Duet : No. 15 in B flat (Allegretto grazioso)
DR16 -0.72 dB -21.44 dB 2:31 16-21 Hungarian Dances, WoO 1 - for Piano Duet : No. 16 in F minor / major (Con moto)
DR14 -0.70 dB -21.17 dB 3:36 17-21 Hungarian Dances, WoO 1 - for Piano Duet : No. 17 in F sharp minor (Andantino)
DR13 -1.30 dB -17.85 dB 1:31 18-21 Hungarian Dances, WoO 1 - for Piano Duet : No. 18 in D (Molto vivace)
DR14 -1.15 dB -19.43 dB 2:04 19-21 Hungarian Dances, WoO 1 - for Piano Duet : No. 19 in B minor (Allegretto)
DR16 -0.82 dB -24.18 dB 2:41 20-21 Hungarian Dances, WoO 1 - for Piano Duet : No. 20 in E minor (Poco allegretto)
DR13 -1.00 dB -20.42 dB 1:46 21-21 Hungarian Dances, WoO 1 - for Piano Duet : No. 21 in E minor (Vivace)
DR11 -1.98 dB -17.64 dB 0:50 22-16 Waltzes, Op.39 - for Piano Duet : 1. in B
DR13 -5.97 dB -24.28 dB 1:12 23-16 Waltzes, Op.39 - for Piano Duet : 2. in E
DR13 -9.82 dB -25.94 dB 1:02 24-16 Waltzes, Op.39 - for Piano Duet : 3. in G sharp minor
DR12 -1.96 dB -17.26 dB 1:16 25-16 Waltzes, Op.39 - for Piano Duet : 4. in E minor
DR13 -5.68 dB -22.26 dB 1:07 26-16 Waltzes, Op.39 - for Piano Duet : 5. in E
DR12 -4.40 dB -21.04 dB 0:55 27-16 Waltzes, Op.39 - for Piano Duet : 6. in C sharp
DR15 -2.55 dB -22.80 dB 1:46 28-16 Waltzes, Op.39 - for Piano Duet : 7. in C sharp minor
DR12 -5.00 dB -21.07 dB 1:05 29-16 Waltzes, Op.39 - for Piano Duet : 8. in B flat
DR13 -6.46 dB -25.41 dB 0:48 30-16 Waltzes, Op.39 - for Piano Duet : 9. in D minor
DR11 -5.96 dB -20.88 dB 0:28 31-16 Waltzes, Op.39 - for Piano Duet : 10. in G
DR12 -4.86 dB -21.37 dB 1:14 32-16 Waltzes, Op.39 - for Piano Duet : 11. in B minor
DR12 -4.15 dB -22.10 dB 1:15 33-16 Waltzes, Op.39 - for Piano Duet : 12. in E
DR13 -2.90 dB -19.35 dB 0:33 34-16 Waltzes, Op.39 - for Piano Duet : 13. in C
DR12 -1.80 dB -17.94 dB 1:24 35-16 Waltzes, Op.39 - for Piano Duet : 14. in A minor
DR12 -8.48 dB -24.89 dB 1:41 36-16 Waltzes, Op.39 - for Piano Duet : 15. in A
DR11 -8.04 dB -26.00 dB 1:03 37-16 Waltzes, Op.39 - for Piano Duet : 16. in D minor
––––––––––––––––––––––––––––––––––––––––

Number of tracks: 37
Official DR value: DR13

Samplerate: 96000 Hz
Channels: 2
Bits per sample: 24
Bitrate: 2191 kbps
Codec: FLAC
================================================================================


Thanks to the Original customer.