Tags
Language
Tags

Trio Wanderer & Christophe Gaugué - Brahms: Piano Quartet, Op. 60 & Piano Trio, Op. 8 (2016) [Official Digital Download 24/96]

Posted By:
Trio Wanderer & Christophe Gaugué - Brahms: Piano Quartet, Op. 60 & Piano Trio, Op. 8 (2016) [Official Digital Download 24/96]

Trio Wanderer & Christophe Gaugué - Brahms: Piano Quartet, Op. 60 & Piano Trio, Op. 8 (2016)
FLAC (tracks) 24-bit/96 kHz | Time - 73:50 minutes | 1.23 GB
Studio Master, Official Digital Download | Artwork: Digital Booklet

Acclaimed for its extraordinarily sensitive style, almost telepathic understanding of each other and technical mastery, the Trio Wanderer is one of the world's foremost chamber ensembles. This program contains Brahms's Piano Trio No.1 and Piano Quartet No.3. Composed during 1854 and revised in 1889, the first trio is the only work by Brahms to exist in two published versions. Here, Trio Wanderer treats us to the rarely heard original score. The Piano Quartet No.3, sometimes called the Werther Quartet, is scored for violin, viola, cello and piano. For this performance, Trio Wanderer is joined by violist Christophe Gaugue.

Tracklist:

Johannes Brahms (1833 - 1897)

01. Piano Trio No. 1 in B Major, Op. 8: I. Allegro con moto
02. Piano Trio No. 1 in B Major, Op. 8: II. Scherzo. Allegro molto-Trio. Più lento
03. Piano Trio No. 1 in B Major, Op. 8: III. Adagio ma non troppo
04. Piano Trio No. 1 in B Major, Op. 8: IV. Allegro molto agitato
05. Piano Quartet No. 3 in C Minor, Op. 60: I. Allegro non troppo
06. Piano Quartet No. 3 in C Minor, Op. 60: II. Scherzo. Allegro
07. Piano Quartet No. 3 in C Minor, Op. 60: III. Andante
08. Piano Quartet No. 3 in C Minor, Op. 60: IV. Finale. Allegro comodo

Personnel:
Christophe Gaugué, viola
Trio Wanderer:
Jean-Marc Phillips-Varjabédian, violin
Raphaël Pidoux, violoncello
Vincent Coq, piano

foobar2000 1.3.7 / Dynamic Range Meter 1.1.1
log date: 2017-11-14 18:56:16

––––––––––––––––––––––––––––––––––––––––
Analyzed: Trio Wanderer, Christophe Gaugué / Brahms: Piano Quartet, Op. 60 & Piano Trio, Op. 8
––––––––––––––––––––––––––––––––––––––––

DR Peak RMS Duration Track
––––––––––––––––––––––––––––––––––––––––
DR15 -0.30 dB -20.28 dB 17:43 01-Piano Trio No. 1 in B Major, Op. 8: I. Allegro con moto
DR14 -0.93 dB -20.97 dB 6:29 02-Piano Trio No. 1 in B Major, Op. 8: II. Scherzo. Allegro molto-Trio. Più lento
DR16 -1.05 dB -24.89 dB 8:06 03-Piano Trio No. 1 in B Major, Op. 8: III. Adagio ma non troppo
DR13 -0.30 dB -19.17 dB 9:21 04-Piano Trio No. 1 in B Major, Op. 8: IV. Allegro molto agitato
DR14 -0.30 dB -19.52 dB 10:05 05-Piano Quartet No. 3 in C Minor, Op. 60: I. Allegro non troppo
DR12 -1.75 dB -18.35 dB 4:05 06-Piano Quartet No. 3 in C Minor, Op. 60: II. Scherzo. Allegro
DR14 -5.51 dB -24.76 dB 8:02 07-Piano Quartet No. 3 in C Minor, Op. 60: III. Andante
DR14 -0.45 dB -20.31 dB 10:02 08-Piano Quartet No. 3 in C Minor, Op. 60: IV. Finale. Allegro comodo
––––––––––––––––––––––––––––––––––––––––

Number of tracks: 8
Official DR value: DR14

Samplerate: 96000 Hz
Channels: 2
Bits per sample: 24
Bitrate: 2415 kbps
Codec: FLAC
================================================================================


Thanks to the Original customer.