Akademie für Alte Musik Berlin & Xenia Löffler - C.P.E. Bach: Oboe Concertos (2020) [Official Digital Download 24/96]

Posted By: SERTiL
Akademie für Alte Musik Berlin & Xenia Löffler - C.P.E. Bach: Oboe Concertos (2020) [Official Digital Download 24/96]

Akademie für Alte Musik Berlin & Xenia Löffler - C.P.E. Bach: Oboe Concertos (2020)
FLAC (tracks) 24-bit/96 kHz | Time - 63:05 minutes | 1.19 GB
Studio Master, Official Digital Download | Artwork: Digital Booklet

The Berlin public of the mid-Eighteenth Century was fascinated by the ‘original genius’ of C. P. E. Bach and never tired of listening to his concertos.

These works call for a talented soloist capable of mastering the multiple facets of an original and finely worked musical texture: a challenge taken up with panache (and on a period instrument) by the oboist Xenia Löffler, surrounded by her distinguished colleagues of the Akademie für Alte Musik Berlin.

Tracklist:
01. Oboe Concerto in E-Flat Major, H. 468, Wq. 165: I. Allegro (6:00)
02. Oboe Concerto in E-Flat Major, H. 468, Wq. 165: II. Adagio ma non troppo (7:44)
03. Oboe Concerto in E-Flat Major, H. 468, Wq. 165: III. Allegro ma non troppo (5:53)
04. Sinfonia for winds, strings and basso continuo in F Major, H. 656, Wq. 181: I. Allegro (3:25)
05. Sinfonia for winds, strings and basso continuo in F Major, H. 656, Wq. 181: II. Andante (3:26)
06. Sinfonia for winds, strings and basso continuo in F Major, H. 656, Wq. 181: III. Allegro assai (4:44)
07. Oboe Concerto in B-Flat Major, H. 466, Wq. 164: I. Allegretto (7:13)
08. Oboe Concerto in B-Flat Major, H. 466, Wq. 164: II. Largo e mesto (7:19)
09. Oboe Concerto in B-Flat Major, H. 466, Wq. 164: III. Allegro moderato (5:17)
10. Sinfonia for 2 oboes, 2 horns, strings and basso continuo in G Major, H. 655, Wq. 180: I. Allegro di molto (3:59)
11. Sinfonia for 2 oboes, 2 horns, strings and basso continuo in G Major, H. 655, Wq. 180: II. Largo (3:58)
12. Sinfonia for 2 oboes, 2 horns, strings and basso continuo in G Major, H. 655, Wq. 180: III. Allegro assai (4:10)

foobar2000 1.3.7 / Dynamic Range Meter 1.1.1
log date: 2020-01-15 15:08:14

––––––––––––––––––––––––––––––––––––––––
Analyzed: Akademie für Alte Musik Berlin & Xenia Löffler / C.P.E. Bach: Oboe Concertos
––––––––––––––––––––––––––––––––––––––––

DR Peak RMS Duration Track
––––––––––––––––––––––––––––––––––––––––
DR14 -3.92 dB -21.47 dB 6:00 01-Oboe Concerto in E-Flat Major, H. 468, Wq. 165: I. Allegro
DR13 -5.14 dB -22.84 dB 7:44 02-Oboe Concerto in E-Flat Major, H. 468, Wq. 165: II. Adagio ma non troppo
DR13 -3.31 dB -22.25 dB 5:53 03-Oboe Concerto in E-Flat Major, H. 468, Wq. 165: III. Allegro ma non troppo
DR15 -0.55 dB -19.39 dB 3:25 04-Sinfonia for winds, strings and basso continuo in F Major, H. 656, Wq. 181: I. Allegro
DR13 -3.73 dB -23.15 dB 3:26 05-Sinfonia for winds, strings and basso continuo in F Major, H. 656, Wq. 181: II. Andante
DR14 -0.55 dB -18.53 dB 4:44 06-Sinfonia for winds, strings and basso continuo in F Major, H. 656, Wq. 181: III. Allegro assai
DR13 -5.21 dB -21.31 dB 7:13 07-Oboe Concerto in B-Flat Major, H. 466, Wq. 164: I. Allegretto
DR13 -4.26 dB -22.70 dB 7:19 08-Oboe Concerto in B-Flat Major, H. 466, Wq. 164: II. Largo e mesto
DR13 -5.33 dB -21.80 dB 5:17 09-Oboe Concerto in B-Flat Major, H. 466, Wq. 164: III. Allegro moderato
DR14 -0.89 dB -19.34 dB 3:59 10-Sinfonia for 2 oboes, 2 horns, strings and basso continuo in G Major, H. 655, Wq. 180: I. Allegro di molto
DR17 -4.20 dB -26.80 dB 3:58 11-Sinfonia for 2 oboes, 2 horns, strings and basso continuo in G Major, H. 655, Wq. 180: II. Largo
DR15 -0.55 dB -18.88 dB 4:10 12-Sinfonia for 2 oboes, 2 horns, strings and basso continuo in G Major, H. 655, Wq. 180: III. Allegro assai
––––––––––––––––––––––––––––––––––––––––

Number of tracks: 12
Official DR value: DR14

Samplerate: 96000 Hz
Channels: 2
Bits per sample: 24
Bitrate: 2749 kbps
Codec: FLAC
================================================================================


Thanks to the Original customer.