Calexico - Seasonal Shift (2020) [Official Digital Download]

Posted By: pyatak
Calexico - Seasonal Shift (2020) [Official Digital Download]

Calexico - Seasonal Shift (2020) [Official Digital Download]
FLAC (tracks) 24-bit/48 kHz | Front Cover | Time - 42:25 minutes | 503 MB
Rock | Label: Anti, Official Digital Download

2020 release. Calexico's Seasonal Shift is less of a Christmas album and more of a cross cultural seasonal celebration. The themes are based around that familiar end of year feeling, of reflection, of ceremony and of recognition of the year gone by and changes it brought for better and for worse. It contains a few cover songs including classics by John Lennon and Tom Petty, a few more special guests and a whole load of good will. It's heartfelt but fun, and earnest but celebratory. It features Calexico in an as-sortment of guises, referencing Portuguese Fado and Old Mexican Folk Songs, from the stripped back two-man skeleton to the full party of international collaborators in-cluding artists like Bombino, Gaby Moreno, Gisela João, Nick Urata (DeVotchKa)and Camilo Lara.

TRACKLIST

01. Calexico - Hear the Bells
02. Calexico - Christmas All Over Again
03. Calexico - Mi Burrito Sabanero
04. Calexico - Heart of Downtown
05. Calexico - Seasonal Shift
06. Calexico - Nature's Domain
07. Calexico - Happy Xmas (War Is Over)
08. Calexico - Glory's Hope
09. Calexico - Tanta Tristeza
10. Calexico - Peace of Mind
11. Calexico - Sonoran Snowball
12. Calexico - Mi Burrito Sabanero (Reprise)

foobar2000 1.6.2 / Dynamic Range Meter 1.1.1
log date: 2020-12-02 22:44:28

––––––––––––––––––––––––––––––––––––––––
Analyzed: Calexico / Seasonal Shift
––––––––––––––––––––––––––––––––––––––––

DR Peak RMS Duration Track
––––––––––––––––––––––––––––––––––––––––
DR7 -0.52 dB -8.82 dB 3:52 01-Hear the Bells
DR6 -0.52 dB -7.97 dB 3:37 02-Christmas All Over Again
DR6 -0.52 dB -8.73 dB 4:05 03-Mi Burrito Sabanero
DR7 -0.52 dB -9.37 dB 3:49 04-Heart of Downtown
DR7 -0.52 dB -8.74 dB 3:22 05-Seasonal Shift
DR8 -0.52 dB -11.00 dB 2:56 06-Nature's Domain
DR6 -0.52 dB -8.57 dB 4:01 07-Happy Xmas (War Is Over)
DR10 -0.52 dB -12.31 dB 2:47 08-Glory's Hope
DR7 -0.52 dB -9.01 dB 3:49 09-Tanta Tristeza
DR7 -0.52 dB -9.49 dB 3:22 10-Peace of Mind
DR7 -0.52 dB -8.65 dB 3:07 11-Sonoran Snowball
DR10 -0.52 dB -12.42 dB 3:36 12-Mi Burrito Sabanero (Reprise)
––––––––––––––––––––––––––––––––––––––––

Number of tracks: 12
Official DR value: DR7

Samplerate: 48000 Hz
Channels: 2
Bits per sample: 24
Bitrate: 1634 kbps
Codec: FLAC
================================================================================



Thanks to the Original customer.