Caligula's Horse - Rise Radiant (2020) [Official Digital Download]

Posted By: pyatak
Caligula's Horse - Rise Radiant (2020) [Official Digital Download]

Caligula's Horse - Rise Radiant (2020) [Official Digital Download]
FLAC (tracks) 24-bit/44.1 kHz | Front Cover | Time - 56:48 minutes | 661 MB
Rock | Label: InsideOutMusic, Official Digital Download

Caligula’s Horse look forward to releasing their most focussed and potent artistic statement yet: Rise Radiant, an uncompromising exploration of the human experience dressed in vivid musical colour and virtuosic performances. It is the culmination of the band’s artistic development, concentrating the expressive stylings which have endeared Caligula’s Horse to legions of fans worldwide. But it is also far more. Rise Radiant is the Caligula’s Horse sound pushed to its extremes: at once its most ferocious and its most touching, its most expansive and its most condensed, its most poetic and its most vicious. Rise Radiant is an anthem for the regeneration of self-belief, an exploration of the themes of legacy, and a rallying cry for survival.

TRACKLIST

1. Caligula's Horse - The Tempest
2. Caligula's Horse - Slow Violence
3. Caligula's Horse - Salt
4. Caligula's Horse - Resonate
5. Caligula's Horse - Oceanrise
6. Caligula's Horse - Valkyrie
7. Caligula's Horse - Autumn
8. Caligula's Horse - The Ascent
9. Caligula's Horse - Don't Give Up (cover version)
10. Caligula's Horse - Message To My Girl (cover version)

foobar2000 1.3.16 / Dynamic Range Meter 1.1.1
log date: 2020-05-22 22:57:23

––––––––––––––––––––––––––––––––––––––––
Analyzed: Caligula's Horse / Rise Radiant
––––––––––––––––––––––––––––––––––––––––

DR Peak RMS Duration Track
––––––––––––––––––––––––––––––––––––––––
DR7 -1.02 dB -9.51 dB 4:48 01-The Tempest
DR7 -1.02 dB -9.85 dB 4:30 02-Slow Violence
DR7 -1.02 dB -10.70 dB 7:41 03-Salt
DR11 -1.02 dB -14.73 dB 2:36 04-Resonate
DR7 -1.02 dB -9.93 dB 4:34 05-Oceanrise
DR7 -1.02 dB -9.23 dB 5:09 06-Valkyrie
DR8 -1.02 dB -13.15 dB 7:43 07-Autumn
DR8 -1.02 dB -10.85 dB 10:43 08-The Ascent
DR8 -1.33 dB -13.45 dB 5:10 09-Don't Give Up (cover version)
DR9 -1.02 dB -12.72 dB 3:54 10-Message To My Girl (cover version)
––––––––––––––––––––––––––––––––––––––––

Number of tracks: 10
Official DR value: DR8

Samplerate: 44100 Hz
Channels: 2
Bits per sample: 24
Bitrate: 1600 kbps
Codec: FLAC
================================================================================



Thanks to the Original customer.