Please register here if you want to download anything!

If domain in your address bar is different from the list below
PLEASE LEAVE THAT SITE IMMEDIATELY
❗IT'S A DANGEROUS FAKE❗



Spicy Magazines for Men! ;-)

Carol Wincenc - Misericordia (2019) [Official Digital Download 24/96]

Posted By: SERTiL
Carol Wincenc - Misericordia (2019) [Official Digital Download 24/96]

Carol Wincenc - Misericordia (2019)
FLAC (tracks) 24-bit/96 kHz | Time - 52:55 minutes | 940 MB
Studio Master, Official Digital Download | Artwork: Front Cover

Internationally renowned flutist Carol Winsenc joins forces with the Escher String Quartet, Tanya Dusevic Witek also on flute, and pianists Stephen Gosling and Emile Naoumoff to present this dynamic recording of the compositions of Yuko Uébayashi. The opening piece, Misericordia pour flûte et quatuor à cordes was composed for Carol Wincenc. Hailed "Queen of the Flute" (New York Magazine) at the outset of her, now, brilliant 48 year career, flutist Carol Wincenc was First Prize Winner of the (sole) Walter W. Naumburg Solo Flute Competition, as well as the Lifetime Achievement Award recipient from the National Flute Association, the National Society of Arts and Letters Gold Medal for Lifetime Achievement in Music, and Distinguished Alumni Awards from Manhattan School of Music and the Brevard Music Center. During the past two seasons she performed, recorded and gave masterclasses as an exclusive Burkart Flutes Artist in Beijing, Shenyang, Seoul, Warsaw, Prague, Venice, Nice, and Thessoloniki.

Tracklist:
1. Misericordia: I. Le premier mois (Frémissement de la vie) (02:59)
2. Misericordia: II. Le deuxième mois (Débordant de vitalité) (01:29)
3. Misericordia: III. Le troisième mois (La berceuse de Carol) (04:08)
4. Misericordia: IV. Le quatrième mois (Scherzo des petits polissons) (00:55)
5. Misericordia: V. Le cinquième mois (Errance dans la galaxie) (02:48)
6. Misericordia: VI. Le sixième mois (La valse des abeilles et des roses) (01:37)
7. Misericordia: VII. Le septième mois (Les feux des péniches qui naviguent) (02:40)
8. Misericordia: VIII. Le huitième mois (Fête des animaux en forêt) (02:08)
9. Misericordia: IX. Le neuvième mois (Vers la lumière) (04:20)
10. Misericordia: X. Le dixième mois (Célébration) (03:22)
11. Au-delà du temps: I. La lumière lointaine de nuit (05:36)
12. Au-delà du temps: II. La lumière dansante (02:47)
13. Au-delà du temps: III. La lumière blanche (06:27)
14. Au-delà du temps: IV. La lumière tournante dans le rêve (04:32)
15. Town Lights (07:07)

foobar2000 1.3.7 / Dynamic Range Meter 1.1.1
log date: 2019-08-13 19:11:05

––––––––––––––––––––––––––––––––––––––––
Analyzed: Carol Wincenc / Misericordia
––––––––––––––––––––––––––––––––––––––––

DR Peak RMS Duration Track
––––––––––––––––––––––––––––––––––––––––
DR11 -3.66 dB -21.02 dB 3:00 01-Misericordia: I. Le premier mois (Frémissement de la vie)
DR13 -0.86 dB -18.66 dB 1:29 02-Misericordia: II. Le deuxième mois (Débordant de vitalité)
DR11 -5.28 dB -22.23 dB 4:09 03-Misericordia: III. Le troisième mois (La berceuse de Carol)
DR13 -1.85 dB -20.08 dB 0:55 04-Misericordia: IV. Le quatrième mois (Scherzo des petits polissons)
DR16 -2.83 dB -27.52 dB 2:49 05-Misericordia: V. Le cinquième mois (Errance dans la galaxie)
DR13 -1.51 dB -18.70 dB 1:38 06-Misericordia: VI. Le sixième mois (La valse des abeilles et des roses)
DR13 -3.83 dB -22.81 dB 2:41 07-Misericordia: VII. Le septième mois (Les feux des péniches qui naviguent)
DR13 -0.85 dB -17.45 dB 2:09 08-Misericordia: VIII. Le huitième mois (Fête des animaux en forêt)
DR9 -14.70 dB -30.34 dB 4:20 09-Misericordia: IX. Le neuvième mois (Vers la lumière)
DR13 -0.60 dB -17.08 dB 3:22 10-Misericordia: X. Le dixième mois (Célébration)
DR13 -1.63 dB -20.37 dB 5:36 11-Au-delà du temps: I. La lumière lointaine de nuit
DR12 -1.60 dB -17.53 dB 2:47 12-Au-delà du temps: II. La lumière dansante
DR14 -4.67 dB -25.90 dB 6:28 13-Au-delà du temps: III. La lumière blanche
DR10 -1.60 dB -15.72 dB 4:32 14-Au-delà du temps: IV. La lumière tournante dans le rêve
DR13 -2.51 dB -21.52 dB 7:08 15-Town Lights
––––––––––––––––––––––––––––––––––––––––

Number of tracks: 15
Official DR value: DR12

Samplerate: 96000 Hz
Channels: 2
Bits per sample: 24
Bitrate: 2343 kbps
Codec: FLAC
================================================================================


Thanks to the Original customer.