Carolyn Sampson, Joseph Middleton - Album für die Frau (2021) [Official Digital Download 24/96]

Posted By: pyatak
Carolyn Sampson, Joseph Middleton - Album für die Frau (2021) [Official Digital Download 24/96]

Carolyn Sampson, Joseph Middleton - Album für die Frau (2021) [Official Digital Download 24/96]
FLAC (tracks) 24-bit/96 kHz | Front Cover | Time - 71:30 minutes | 1,09 GB
Classical | Label: BIS, Official Digital Download

For the first four years of their marriage, Robert and Clara Schumann kept a joint diary, a project which Robert described as a record of our wishes and our hopes, and the means whereby we may convey to one another any requests we may have to make, for which words may not suffice… In the imaginative recital Album für die Frau, Carolyn Sampson and Joseph Middleton combine songs by both composers into something similar the depiction of a relationship seen through the eyes of both parties. Using the eight songs from Roberts song cycle Frauenliebe und leben to poems by Adalbert von Chamisso as the framework, they add songs as well as some piano solos in order to create a fuller and more complex picture. The result seems to suggest that the experiences of our Frau are richer than Chamisso and Robert Schumann imagined: while love, marriage and motherhood dominated much of Clara Schumanns life, Roberts death in 1856 signaled the start of a four-decade widowhood during which she resumed her stellar career as a pianist. As a team, Carolyn Sampson and Joseph Middleton have released a number of acclaimed discs, including Fleurs, featuring flower-themed songs by composers from Purcell to Richard Strauss and Britten, A Verlaine Songbook, exploring settings of the poetry of Paul Verlaine, and A Sopranos Schubertiade, a Schubert anthology.

TRACKLIST

01. Joseph Middleton - Album für die Jugend, Op. 68 (Excerpts): No. 21, Langsam und mit Ausdruck zu spielen
02. Carolyn Sampson & Joseph Middleton - Lieder, Op. 12 (Excerpts): No. 4, Liebst du um Schönheit
03. Carolyn Sampson & Joseph Middleton - Frauenliebe und Leben, Op. 42: No. 1, Seit ich ihn gesehen
04. Carolyn Sampson & Joseph Middleton - 6 Lieder, Op. 23 (Excerpts): No. 6, O Lust, o Lust
05. Carolyn Sampson & Joseph Middleton - Lieder und Gesänge, Vol. 2, Op. 51 (Excerpts): No. 2, Volksliedchen
06. Carolyn Sampson & Joseph Middleton - 6 Lieder, Op. 13 (Excerpts): No. 3, Die Liebe sass als Nachtigall
07. Carolyn Sampson & Joseph Middleton - Frauenliebe und Leben, Op. 42: No. 2, Er, der Herrlichste von allen
08. Carolyn Sampson & Joseph Middleton - 6 Lieder, Op. 23 (Excerpts): No. 2, An einem lichten Morgen
09. Carolyn Sampson & Joseph Middleton - Lieder, Op. 12 (Excerpts): No. 11, Warum willst du and're fragen [After R. Schumann's Op. 37 No. 11]
10. Carolyn Sampson & Joseph Middleton - Lieder und Gesänge, Vol. 2, Op. 51 (Excerpts): No. 5, Liebeslied
11. Carolyn Sampson & Joseph Middleton - Frauenliebe und Leben, Op. 42: No. 3, Ich kann's nicht fassen
12. Carolyn Sampson & Joseph Middleton - 5 Lieder, Op. 40: No. 5, Verratene Liebe
13. Carolyn Sampson & Joseph Middleton - 6 Lieder, Op. 13 (Excerpts): No. 6, Die stille Lotosblume
14. Carolyn Sampson & Joseph Middleton - Frauenliebe und Leben, Op. 42: No. 4, Du Ring an meinem Finger
15. Carolyn Sampson & Joseph Middleton - 6 Lieder, Op. 13 (Excerpts): No. 4, Der Mond kommt still gegangen
16. Carolyn Sampson & Joseph Middleton - Myrthen, Op. 25 (Excerpts): No. 11, Lied der Braut I "Mutter Mutter"
17. Carolyn Sampson & Joseph Middleton - Myrthen, Op. 25 (Excerpts): No. 12, Lied der Braut II "Lass mich ihm am Busen hangen"
18. Joseph Middleton - Kinderszenen, Op. 15 (Excerpts): No. 5, Glückes genug
19. Carolyn Sampson & Joseph Middleton - Frauenliebe und Leben, Op. 42: No. 5, Helft mir, ihr Schwestern
20. Carolyn Sampson & Joseph Middleton - Myrthen, Op. 25 (Excerpts): No. 7, Die Lotosblume
21. Carolyn Sampson & Joseph Middleton - 12 Gedichte, Op. 35: No. 1, Lust der Sturmnacht
22. Carolyn Sampson & Joseph Middleton - Frauenliebe und Leben, Op. 42: No. 6, Süßer Freund, du blickest
23. Carolyn Sampson & Joseph Middleton - Myrthen, Op. 25 (Excerpts): No. 14, Hochländisches Wiegenlied
24. Carolyn Sampson & Joseph Middleton - Liederalbum für die Jugend, Op. 79: No. 13, Der Sandmann
25. Joseph Middleton - Kinderszenen, Op. 15 (Excerpts): No. 12, Kind im Einschlummern
26. Carolyn Sampson & Joseph Middleton - Frauenliebe und Leben, Op. 42: No. 7, An meinem Herzen
27. Joseph Middleton - Kinderszenen, Op. 15 (Excerpts): No. 9, Ritter vom Steckenpferd
28. Carolyn Sampson & Joseph Middleton - 5 Lieder und Gesänge, Op. 127: No. 2, Dein Angesicht
29. Carolyn Sampson & Joseph Middleton - 4 Gesänge, Op. 142: No. 3, Mädchen-Schwermut
30. Carolyn Sampson & Joseph Middleton - Frauenliebe und Leben, Op. 42: No. 8, Nun hast du mir den ersten Schmerz getan
31. Carolyn Sampson & Joseph Middleton - 6 Gedichte von N. Lenau und Requiem, Op. 90: No. 7, Requiem
32. Joseph Middleton - Album für die Jugend, Op. 68 (Excerpts): No. 38a, Winterzeit I

foobar2000 1.6 / Dynamic Range Meter 1.1.1
log date: 2021-04-07 22:06:35

––––––––––––––––––––––––––––––––––––––––
Analyzed: Carolyn Sampson & Joseph Middleton / Album für die Frau
––––––––––––––––––––––––––––––––––––––––

DR Peak RMS Duration Track
––––––––––––––––––––––––––––––––––––––––
DR12 -11.74 dB -30.09 dB 1:54 01-Schumann: Album für die Jugend, Op. 68 (Excerpts): No. 21, Langsam und mit Ausdruck zu spielen
DR12 -3.96 dB -22.36 dB 2:08 02-Schumann: Lieder, Op. 12 (Excerpts): No. 4, Liebst du um Schönheit
DR13 -9.64 dB -28.10 dB 2:28 03-Schumann: Frauenliebe und Leben, Op. 42: No. 1, Seit ich ihn gesehen
DR13 -0.30 dB -18.63 dB 1:40 04-Schumann: 6 Lieder, Op. 23 (Excerpts): No. 6, O Lust, o Lust
DR13 -4.19 dB -23.25 dB 0:57 05-Schumann: Lieder und Gesänge, Vol. 2, Op. 51 (Excerpts): No. 2, Volksliedchen
DR13 -0.30 dB -21.86 dB 2:05 06-Schumann: 6 Lieder, Op. 13 (Excerpts): No. 3, Die Liebe sass als Nachtigall
DR14 -2.38 dB -23.46 dB 3:18 07-Schumann: Frauenliebe und Leben, Op. 42: No. 2, Er, der Herrlichste von allen
DR14 -0.30 dB -20.44 dB 2:30 08-Schumann: 6 Lieder, Op. 23 (Excerpts): No. 2, An einem lichten Morgen
DR12 -8.05 dB -26.12 dB 2:23 09-Schumann: Lieder, Op. 12 (Excerpts): No. 11, Warum willst du and're fragen [After R. Schumann's Op. 37 No. 11]
DR14 -2.47 dB -22.26 dB 2:16 10-Schumann: Lieder und Gesänge, Vol. 2, Op. 51 (Excerpts): No. 5, Liebeslied
DR13 -0.30 dB -23.39 dB 1:35 11-Schumann: Frauenliebe und Leben, Op. 42: No. 3, Ich kann's nicht fassen
DR12 -0.89 dB -21.60 dB 0:50 12-Schumann: 5 Lieder, Op. 40: No. 5, Verratene Liebe
DR14 -4.80 dB -26.00 dB 2:41 13-Schumann: 6 Lieder, Op. 13 (Excerpts): No. 6, Die stille Lotosblume
DR14 -2.45 dB -24.45 dB 2:32 14-Schumann: Frauenliebe und Leben, Op. 42: No. 4, Du Ring an meinem Finger
DR12 -3.00 dB -25.17 dB 2:01 15-Schumann: 6 Lieder, Op. 13 (Excerpts): No. 4, Der Mond kommt still gegangen
DR14 -0.96 dB -23.96 dB 2:18 16-Schumann: Myrthen, Op. 25 (Excerpts): No. 11, Lied der Braut I "Mutter Mutter"
DR13 -7.24 dB -27.29 dB 1:36 17-Schumann: Myrthen, Op. 25 (Excerpts): No. 12, Lied der Braut II "Lass mich ihm am Busen hangen"
DR10 -8.61 dB -23.09 dB 1:04 18-Schumann: Kinderszenen, Op. 15 (Excerpts): No. 5, Glückes genug
DR13 -2.43 dB -21.95 dB 2:00 19-Schumann: Frauenliebe und Leben, Op. 42: No. 5, Helft mir, ihr Schwestern
DR13 -1.86 dB -23.52 dB 1:49 20-Schumann: Myrthen, Op. 25 (Excerpts): No. 7, Die Lotosblume
DR13 -1.35 dB -19.79 dB 1:32 21-Schumann: 12 Gedichte, Op. 35: No. 1, Lust der Sturmnacht
DR14 -7.03 dB -27.29 dB 4:29 22-Schumann: Frauenliebe und Leben, Op. 42: No. 6, Süßer Freund, du blickest
DR14 -7.65 dB -27.62 dB 2:56 23-Schumann: Myrthen, Op. 25 (Excerpts): No. 14, Hochländisches Wiegenlied
DR14 -7.89 dB -27.61 dB 2:12 24-Schumann: Liederalbum für die Jugend, Op. 79: No. 13, Der Sandmann
DR11 -15.62 dB -32.38 dB 1:50 25-Schumann: Kinderszenen, Op. 15 (Excerpts): No. 12, Kind im Einschlummern
DR13 -4.32 dB -22.33 dB 1:19 26-Schumann: Frauenliebe und Leben, Op. 42: No. 7, An meinem Herzen
DR10 -5.10 dB -19.61 dB 0:49 27-Schumann: Kinderszenen, Op. 15 (Excerpts): No. 9, Ritter vom Steckenpferd
DR15 -3.02 dB -24.16 dB 2:38 28-Schumann: 5 Lieder und Gesänge, Op. 127: No. 2, Dein Angesicht
DR14 -6.72 dB -27.90 dB 3:05 29-Schumann: 4 Gesänge, Op. 142: No. 3, Mädchen-Schwermut
DR15 -6.20 dB -29.22 dB 4:18 30-Schumann: Frauenliebe und Leben, Op. 42: No. 8, Nun hast du mir den ersten Schmerz getan
DR14 -0.30 dB -20.77 dB 3:51 31-Schumann: 6 Gedichte von N. Lenau und Requiem, Op. 90: No. 7, Requiem
DR12 -12.71 dB -31.22 dB 2:26 32-Schumann: Album für die Jugend, Op. 68 (Excerpts): No. 38a, Winterzeit I
––––––––––––––––––––––––––––––––––––––––

Number of tracks: 32
Official DR value: DR13

Samplerate: 96000 Hz
Channels: 2
Bits per sample: 24
Bitrate: 1951 kbps
Codec: FLAC
================================================================================



Thanks to the Original customer.