Carpenters - Carpenters With The Royal Philharmonic Orchestra (2018) [Official Digital Download 24/192]

Posted By: SERTiL
Carpenters - Carpenters With The Royal Philharmonic Orchestra (2018) [Official Digital Download 24/192]

Carpenters - Carpenters With The Royal Philharmonic Orchestra (2018)
FLAC (tracks) 24-bit/192 kHz | Time - 66:12 minutes | 2.29 GB
Studio Master, Official Digital Download | Artwork: Front Cover

Carpenters with the Royal Philharmonic Orchestra showcases the anthemic ballads of Karen and Richard Carpenter with brand new symphonic arrangements composed, produced, and conducted by Richard Carpenter himself. Performed by the Royal Philharmonic Orchestra at the iconic Abbey Road Studios, this fresh orchestration paired with the timeless original vocals is a true reimagining of the signature songs everyone knows and loves.

Carpenters With The Royal Philharmonic Orchestra comes on the heels of the RPO’s album projects of recent years accompanying the catalogues of Elvis Presley, Aretha Franklin, Roy Orbison and the Beach Boys. The Carpenters’ album represents the first time that one of the artists who created the timeless original music has been closely involved in their new presentation. Richard Carpenter serves as the producer, arranger and conductor on the album.

Richard Carpenter met the Royal Philharmonic Orchestra in Studio 2 at Abbey Road Studios in August 2018 to record the new arrangements which add to the original vocals and keyboards performed by himself and his late sister Karen Carpenter. Richard finally has a chance to 'correct' original versions that have always bothered him, such as adding more strings to the classic hit "Close To You", giving it a richer sound. Richard says "these refreshed tracks more than ever showcase Karen's remarkable voice… And that to me was reason number one for undertaking the project."

Tracklist:
01. Overture 01:29
02. Yesterday Once More 03:56
03. Hurting Each Other 03:58
04. I Need To Be In Love 04:30
05. For All We Know 02:56
06. Touch Me When We're Dancing 03:15
07. I Believe You 03:53
08. I Just Fall In Love Again 05:01
09. Merry Christmas, Darling 03:01
10. Baby It's You 03:11
11. (They Long To Be) Close To You 03:40
12. Superstar 03:51
13. Rainy Days And Mondays 03:36
14. This Masquerade 04:50
15. Ticket To Ride 04:10
16. Goodbye To Love 03:58
17. Top Of The World 02:59
18. We've Only Just Begun 03:57

Produced by Richard Carpenter Nick Patrick

foobar2000 1.3.7 / Dynamic Range Meter 1.1.1
log date: 2018-12-07 04:44:42

––––––––––––––––––––––––––––––––––––––––
Analyzed: Carpenters, The Royal Philharmonic Orchestra / Carpenters With The Royal Philharmonic Orchestra
––––––––––––––––––––––––––––––––––––––––

DR Peak RMS Duration Track
––––––––––––––––––––––––––––––––––––––––
DR8 -0.22 dB -11.84 dB 1:29 01-Overture
DR6 -0.22 dB -8.93 dB 3:57 02-Yesterday Once More
DR8 -0.22 dB -11.35 dB 3:58 03-Hurting Each Other
DR6 -0.22 dB -10.42 dB 4:30 04-I Need To Be In Love
DR8 -0.22 dB -10.58 dB 2:57 05-For All We Know
DR6 -0.20 dB -8.91 dB 3:16 06-Touch Me When We're Dancing
DR7 -0.22 dB -10.04 dB 3:54 07-I Believe You
DR7 -0.22 dB -11.35 dB 5:01 08-I Just Fall In Love Again
DR8 -0.22 dB -9.86 dB 3:02 09-Merry Christmas, Darling
DR7 -0.20 dB -10.67 dB 3:12 10-Baby It's You
DR8 -0.22 dB -11.06 dB 3:41 11-(They Long To Be) Close To You
DR6 -0.22 dB -9.36 dB 3:51 12-Superstar
DR6 -0.22 dB -8.86 dB 3:37 13-Rainy Days And Mondays
DR7 -0.22 dB -9.74 dB 4:51 14-This Masquerade
DR8 -0.22 dB -10.53 dB 4:10 15-Ticket To Ride
DR6 -0.22 dB -8.42 dB 3:59 16-Goodbye To Love
DR8 -0.22 dB -9.66 dB 2:59 17-Top Of The World
DR6 -0.22 dB -10.17 dB 3:59 18-We've Only Just Begun
––––––––––––––––––––––––––––––––––––––––

Number of tracks: 18
Official DR value: DR7

Samplerate: 192000 Hz
Channels: 2
Bits per sample: 24
Bitrate: 5637 kbps
Codec: FLAC
================================================================================


Thanks to the Original customer.