Tags
Language
Tags
February 2023
Su Mo Tu We Th Fr Sa
29 30 31 1 2 3 4
5 6 7 8 9 10 11
12 13 14 15 16 17 18
19 20 21 22 23 24 25
26 27 28 1 2 3 4

Carpenters - Carpenters Gold (Greatest Hits) (2000/2018) [Limited Edition,SACD] PS3 ISO

Posted By: Discograf_man
Carpenters - Carpenters Gold (Greatest Hits) (2000/2018) [Limited Edition,SACD] PS3 ISO

Carpenters - Carpenters Gold (Greatest Hits) (2000/2018) [Limited Edition,SACD] PS3 ISO
Pop Rock, Vocal, Ballad | SACD ISO: DSD 2.0 > 1-bit/2.8224 MHz
Run Time: 01:16:20 | 3.22 GB + 5% Recovery
Label: Universal Music | Release Year: 2018

This 20 track compilation features the most popular tracks by the Connecticut-born brother/sister duo. Their fusion of easy listening and MOR pop brought The Carpenters a decade of chart success. 'Carpenters Gold' includes fourteen tracks which reached the UK top 40 in the 1970's.
Look no further for the definitive Carpenters collection; the Carpenters Gold contains 20 great songs! Karen Carpenter's pure, gentle voice, and brother Richard's smooth-but-sophisticated arrangements and keyboards provided the signature sound of the soft-pop 1970s. You could put this collection into a time capsule for a hundred years and accurately inform subsequent generations of what AM radio sounded like in the '70s. This anthology is also a tribute the great talents of the Paul Williams/Roger Nichols songwriting team, from whose pens flowed "Rainy Days and Mondays," "We've Only Just Begun," "I Won't Last a Day Without You," and other mellow, tuneful gems - some of the classiest pure pop music of the era.
Tracklist:

01. Yesterday Once More
02. Superstar
03. Rainy Days And Mondays
04. Goodbye To Love
05. It's Going To Take Some Time
06. I Won't Last A Day Without You
07. For All We Know
08. Jambalaya (On The Bayou)
09. Touch Me When We're Dancing
10. Please Mr.Postman
11. I Need To Be In Love
12. Solitaire
13. We've Only Just Begun
14. (They Long To Be) Close To You
15. This Masquerade
16. Ticket To Ride
17. Top Of The World
18. Only Yesterday
19. Sing
20. Calling Occupants Of Interplanetary Craft

Carpenters - Carpenters Gold (Greatest Hits) (2000/2018) [Limited Edition,SACD] PS3 ISO


foobar2000 1.4 / Dynamic Range Meter 1.1.1
log date: 2019-08-17 14:43:56

––––––––––––––––––––––––––––––––––––––––
Analyzed: Carpenters / Carpenters - Gold
––––––––––––––––––––––––––––––––––––––––

DR Peak RMS Duration Track
––––––––––––––––––––––––––––––––––––––––
DR12 -6.30 dB -21.18 dB 4:00 01-Yesterday Once More
DR11 -6.37 dB -20.94 dB 3:49 02-Superstar
DR11 -6.85 dB -21.60 dB 3:36 03-Rainy Days And Mondays
DR8 -6.57 dB -18.33 dB 3:57 04-Goodbye To Love
DR12 -6.74 dB -21.21 dB 2:59 05-It's Going To Take Some Time
DR11 -6.48 dB -20.80 dB 3:55 06-I Won't Last A Day Without You
DR12 -7.04 dB -20.42 dB 2:33 07-For All We Know
DR13 -6.45 dB -21.09 dB 3:38 08-Jambalaya (On The Bayou)
DR11 -6.28 dB -20.72 dB 3:22 09-Touch Me When We're Dancing
DR12 -5.96 dB -19.70 dB 2:49 10-Please Mr. Postman
DR10 -6.38 dB -20.99 dB 3:50 11-I Need To Be In Love
DR10 -6.54 dB -21.08 dB 4:42 12-Solitaire
DR10 -6.79 dB -20.61 dB 3:06 13-We've Only Just Begun
DR12 -6.47 dB -22.05 dB 3:42 14-(They Long To Be) Close To You
DR14 -6.01 dB -23.08 dB 4:54 15-This Masquerade
DR9 -7.92 dB -20.50 dB 4:10 16-Ticket To Ride
DR10 -7.59 dB -20.04 dB 3:00 17-Top Of The World
DR11 -6.09 dB -19.94 dB 3:47 18-Only Yesterday
DR11 -7.01 dB -21.41 dB 3:20 19-Sing
DR11 -7.16 dB -22.21 dB 7:11 20-Calling Occupants Of Interplanetary Craft
––––––––––––––––––––––––––––––––––––––––

Number of tracks: 20
Official DR value: DR11

Samplerate: 2822400 Hz / PCM Samplerate: 88200 Hz
Channels: 2
Bits per sample: 1
Bitrate: 5645 kbps
Codec: DSD64
================================================================================

Thanks to the original releaser!