Please register here if you want to download anything!

If domain in your address bar is different from the list below
PLEASE LEAVE THAT SITE IMMEDIATELY
❗IT'S A DANGEROUS FAKE❗



Spicy Magazines for Men! ;-)

The Dave Clark Five - Catch Us If You Can (1965/2019) [Official Digital Download 24/96]

Posted By: SERTiL
The Dave Clark Five - Catch Us If You Can (1965/2019) [Official Digital Download 24/96]

The Dave Clark Five - Catch Us If You Can (1965/2019)
FLAC (tracks) 24-bit/96 kHz | Time - 34:19 minutes | 673 MB
Studio Master, Official Digital Download | Artwork: Front Cover

The Dave Clark Five are usually compared with their British contemporaries, the Beatles. Though clearly not in the same league, they don't deserve to be completely dismissed.

The London based DC5 got together in the early 60's in the hopes of raising money for their football club so they could play some matches on the continent. Forming around drummer Dave Clark, the group featured Mike Smith on keyboards and vocals. By '63, as the Beatles were tearing up England, the DC 5 signed a recording contract. Their first hit was a cover of the Contour's "Do You Love Me" but the big news came months later when "Glad All Over" displaced the Beatles "I Want To Hold Your Hand" at #1. The London press predicted the "Liverpool fad" would be replaced by the Tottenham (DC5's London stomping ground) Sound. It was utter nonsense. "I Want To Hold Your Hand" couldn't stay on top forever. Something had to replace it.

"Catch Us If You Can," "Can't You See That She's Mine" and "Bits and Pieces" were among the DC5's best Rockers. The group, thanks to extensive TV exposure, kept going strong through '66 (a long run in Rock n' Roll years). They even made a decent movie "Having A Wild Weekend."

The other notable thing about the DC5 was Dave Clark himself. Rockers have been consistently cheated out of royalties or made horrendous investments. Both the Beatles and Rolling Stones lost huge sums (even though Mick Jagger was an economics student). But they earned so much the loss wasn't fatal - but pretty close. Lesser bands, usually found themselves broke shortly after the hits stopped. Some even before. Dave Clark owned exclusive rights to his group's recordings and managed them extraordinarily well. When the plug was pulled on the landmark British music show "Ready, Steady, Go!" Clark bought the program rights. The show contained performances by his band and just about every major and minor Rock act from the mid-60's. Doling out the music footage was another Clark moneymaker.

As the late-60's dawned the straight-ahead Rock of the DC5 was woefully out of fashion. Also, the group made some bad song choices. The DC5 were probably the only group with all its members surviving the 60's not to play the revival circuit. The reason was simple; Clark didn't need the money.

Tracklist:
1 Catch Us If You Can (2019 - Remaster) 01:54
2 On the Move (2019 - Remaster) 02:22
3 If You Come Back (2019 - Remaster) 02:50
4 Long Ago (2019 - Remaster) 02:12
5 Any Time You Want Love (2019 - Remaster) 02:12
6 I Can't Stand It (2019 - Remaster) 01:22
7 Your Turn to Cry (2019 - Remaster) 03:13
8 Hurtin' Inside (2019 - Remaster) 02:39
9 Don't Be Taken In (2019 - Remaster) 02:23
10 Don't You Realize (2019 - Remaster) 03:38
11 I Cried Over You (2019 - Remaster) 02:29
12 Sweet Memories (2019 - Remaster) 02:45
13 When (2019 - Remaster) 02:29
14 Having a Wild Weekend (2019 - Remaster) 01:51

foobar2000 1.3.7 / Dynamic Range Meter 1.1.1
log date: 2019-07-21 16:06:36

––––––––––––––––––––––––––––––––––––––––
Analyzed: The Dave Clark Five / Catch Us If You Can (2019 - Remaster)
––––––––––––––––––––––––––––––––––––––––

DR Peak RMS Duration Track
––––––––––––––––––––––––––––––––––––––––
DR11 -1.01 dB -13.22 dB 1:55 01-Catch Us If You Can
DR10 -1.03 dB -12.70 dB 2:23 02-On the Move
DR11 -1.03 dB -12.30 dB 2:51 03-If You Come Back
DR10 -1.03 dB -12.42 dB 2:13 04-Long Ago
DR10 -1.03 dB -12.14 dB 2:13 05-Any Time You Want Love
DR10 -1.02 dB -11.82 dB 1:23 06-I Can't Stand It
DR10 -1.02 dB -11.56 dB 3:14 07-Your Turn to Cry
DR9 -1.02 dB -11.63 dB 2:39 08-Hurtin' Inside
DR10 -1.03 dB -11.22 dB 2:24 09-Don't Be Taken In
DR11 -1.03 dB -13.56 dB 3:39 10-Don't You Realize
DR10 -1.02 dB -12.61 dB 2:29 11-I Cried Over You
DR10 -1.02 dB -12.42 dB 2:45 12-Sweet Memories
DR10 -1.03 dB -11.36 dB 2:30 13-When
DR11 -1.03 dB -12.26 dB 1:52 14-Having a Wild Weekend
––––––––––––––––––––––––––––––––––––––––

Number of tracks: 14
Official DR value: DR10

Samplerate: 96000 Hz
Channels: 2
Bits per sample: 24
Bitrate: 2827 kbps
Codec: FLAC
================================================================================