Tags
Language
Tags

Charlie Haden - Magico (1980/2021) [Official Digital Download 24/96]

Posted By: pyatak
Charlie Haden - Magico (1980/2021) [Official Digital Download 24/96]

Charlie Haden - Magico (1980/2021) [Official Digital Download 24/96]
FLAC (tracks) 24-bit/96 kHz | Front Cover | Time - 43:46 minutes | 805 MB
Jazz | Label: ECM, Official Digital Download

Mágico (Portuguese for either the adjective "magic" or the noun "magician") is an album by bassist Charlie Haden, saxophonist Jan Garbarek and guitarist Egberto Gismonti recorded in 1979 and released on the ECM label.

The AllMusic review by Scott Yanow awarded the album four stars, stating, "The trio performs group originals and an obscurity during the picturesque and continually interesting release; this combination works well".

TRACKLIST

1. Charlie Haden - Bailarina
2. Charlie Haden - Magico
3. Charlie Haden - Silence
4. Charlie Haden - Spor
5. Charlie Haden - Palhaco

foobar2000 1.6.2 / Dynamic Range Meter 1.1.1
log date: 2021-07-30 06:40:33

––––––––––––––––––––––––––––––––––––––––
Analyzed: Charlie Haden / Magico
––––––––––––––––––––––––––––––––––––––––

DR Peak RMS Duration Track
––––––––––––––––––––––––––––––––––––––––
DR13 -1.20 dB -18.94 dB 14:34 01-Bailarina
DR12 -1.75 dB -18.31 dB 7:46 02-Magico
DR14 -2.69 dB -22.87 dB 10:17 03-Silence
DR14 -1.46 dB -20.66 dB 6:11 04-Spor
DR14 -1.65 dB -20.88 dB 5:01 05-Palhaco
––––––––––––––––––––––––––––––––––––––––

Number of tracks: 5
Official DR value: DR13

Samplerate: 96000 Hz
Channels: 2
Bits per sample: 24
Bitrate: 2536 kbps
Codec: FLAC
================================================================================



Thanks to the Original customer.