Tags
Language
Tags
February 2023
Su Mo Tu We Th Fr Sa
29 30 31 1 2 3 4
5 6 7 8 9 10 11
12 13 14 15 16 17 18
19 20 21 22 23 24 25
26 27 28 1 2 3 4

Charlie Parker - Charlie Parker with Strings (1950/2022) [Official Digital Download]

Posted By: pyatak
Charlie Parker - Charlie Parker with Strings (1950/2022) [Official Digital Download]

Charlie Parker - Charlie Parker with Strings (1950/2022) [Official Digital Download]
FLAC (tracks) 24-bit/48 kHz | Front Cover | Time - 00:39:20 minutes | 171 MB
Jazz | Studio Master, Official Digital Download

Charlie Parker with Strings is the name of two separate albums by jazz musician Charlie Parker, released in 1950 on Mercury Records. It is also the name of a 1995 compilation album released by Verve Records, containing all the tracks from both the 1950 albums, as well as additional material. The sessions place Parker in the context of a small classical string section and a jazz rhythm section, rather than his standard bebop quintet. They were Parker's most popular sellers during his lifetime, and were admitted to the Grammy Hall of Fame in 1988.

TRACKLIST

1. Charlie Parker - April in Paris
2. Charlie Parker - Summertime
3. Charlie Parker - If I Should Lose You
4. Charlie Parker - I Didn't Know What Time it Was
5. Charlie Parker - Everything Happens to Me
6. Charlie Parker - Just Friends
7. Charlie Parker - They Can't Take That Away from Me
8. Charlie Parker - You Came Along (from Out of Nowhere)
9. Charlie Parker - East of the Sun (West of the Moon)
10. Charlie Parker - Easy to Love
11. Charlie Parker - I'm in the Mood for Love
12. Charlie Parker - I'll Remember April

foobar2000 1.6.2 / Dynamic Range Meter 1.1.1
log date: 2022-10-11 19:56:05

––––––––––––––––––––––––––––––––––––––––
Analyzed: Charlie Parker / Charlie Parker with Strings
––––––––––––––––––––––––––––––––––––––––

DR Peak RMS Duration Track
––––––––––––––––––––––––––––––––––––––––
DR11 -0.02 dB -14.18 dB 3:13 01-April in Paris
DR11 -0.06 dB -12.64 dB 2:49 02-Summertime
DR11 -0.04 dB -13.37 dB 2:49 03-If I Should Lose You
DR11 -0.03 dB -13.54 dB 3:15 04-I Didn't Know What Time it Was
DR10 -0.04 dB -12.61 dB 3:18 05-Everything Happens to Me
DR10 -0.03 dB -12.61 dB 3:33 06-Just Friends
DR12 -0.06 dB -15.17 dB 3:20 07-They Can't Take That Away from Me
DR11 -0.08 dB -13.69 dB 3:10 08-You Came Along (from Out of Nowhere)
DR11 -0.01 dB -13.67 dB 3:42 09-East of the Sun (West of the Moon)
DR11 -0.03 dB -13.55 dB 3:33 10-Easy to Love
DR12 -0.05 dB -14.90 dB 3:37 11-I'm in the Mood for Love
DR10 -0.05 dB -12.82 dB 3:06 12-I'll Remember April
––––––––––––––––––––––––––––––––––––––––

Number of tracks: 12
Official DR value: DR11

Samplerate: 48000 Hz
Channels: 2
Bits per sample: 24
Bitrate: 580 kbps
Codec: FLAC
================================================================================



Thanks to the Original customer.