Tags
Language
Tags

Charlie Parker - April In Paris - Charlie Parker With Strings - The Genius Of Charlie Parker #2 (1957/2016) [24/192]

Posted By: pyatak
Charlie Parker - April In Paris - Charlie Parker With Strings - The Genius Of Charlie Parker #2 (1957/2016) [24/192]

Charlie Parker - April In Paris - Charlie Parker With Strings - The Genius Of Charlie Parker #2 (1957/2016) [24/192]
FLAC (tracks) 24-bit/192 kHz | Front Cover | Time - 38:52 minutes | 950 MB
Jazz | Studio Master, Official Digital Download

"… Parker's jazz-classical fusion became a formula used repeatedly by jazz musicians to express a more relaxed, pop side and extend the music's reach …"
- JazzWax.com

"… now considered a jazz classic … it was, supposedly, Parker's favourite of his own recordings. Strings fascinated him and he welcomed the opportunity to record standards with a small string ensemble. The results are stunning, his liquid alto soaring over the tuneful and only occasionally stiff arrangements …"
- All About Jazz

This reissue combines a pair of Charlie Parker's most popular recordings, two volumes titled Charlie Parker with Strings, recorded in 1949 and 1950. Unlike most of Parker's other albums, for these sessions he eschewed original tunes and stuck to standards by Cole Porter, the Gershwins, Jimmy McHugh and others, reimagined for a small string ensemble.

TRACKLIST

1. Charlie Parker - April In Paris
2. Charlie Parker - Summertime
3. Charlie Parker - If I Should Lose You
4. Charlie Parker - I Didn't Know What Time It Was
5. Charlie Parker - Everything Happens To Me
6. Charlie Parker - Just Friends
7. Charlie Parker - They Can't Take That Away From Me
8. Charlie Parker - Out Of Nowhere
9. Charlie Parker - East Of The Sun (West Of The Moon)
10. Charlie Parker - Easy To Love (Album Version)
11. Charlie Parker - I'm In The Mood For Love (Take 3 / Alternate)
12. Charlie Parker - I'll Remember April

foobar2000 1.6.2 / Dynamic Range Meter 1.1.1
log date: 2021-06-09 20:51:31

––––––––––––––––––––––––––––––––––––––––
Analyzed: Charlie Parker / April In Paris: Charlie Parker With Strings - The Genius Of Charlie Parker #2
––––––––––––––––––––––––––––––––––––––––

DR Peak RMS Duration Track
––––––––––––––––––––––––––––––––––––––––
DR9 -0.47 dB -10.92 dB 3:07 01-April In Paris
DR9 -0.33 dB -11.49 dB 2:47 02-Summertime
DR9 -0.25 dB -11.27 dB 2:48 03-If I Should Lose You
DR9 -0.51 dB -11.72 dB 3:15 04-I Didn't Know What Time It Was
DR9 -0.17 dB -11.38 dB 3:17 05-Everything Happens To Me
DR10 0.00 dB -12.82 dB 3:32 06-Just Friends
DR10 -0.11 dB -12.85 dB 3:18 07-They Can't Take That Away From Me
DR9 -0.08 dB -12.08 dB 3:06 08-Out Of Nowhere
DR10 -0.42 dB -13.42 dB 3:38 09-East Of The Sun (West Of The Moon)
DR10 -0.11 dB -13.10 dB 3:29 10-Easy To Love (Album Version)
DR10 0.00 dB -13.22 dB 3:34 11-I'm In The Mood For Love (Take 3 / Alternate)
DR10 -0.20 dB -13.00 dB 3:01 12-I'll Remember April
––––––––––––––––––––––––––––––––––––––––

Number of tracks: 12
Official DR value: DR10

Samplerate: 192000 Hz
Channels: 2
Bits per sample: 24
Bitrate: 3408 kbps
Codec: FLAC
================================================================================



Thanks to the Original customer.