Charlie Siem & Itamar Golan - Between The Clouds (2020) [Official Digital Download 24/96]

Posted By: pyatak
Charlie Siem & Itamar Golan - Between The Clouds (2020) [Official Digital Download 24/96]

Charlie Siem & Itamar Golan - Between The Clouds (2020) [Official Digital Download 24/96]
FLAC (tracks) 24-bit/96 kHz | Front Cover | Time - 01:11:30 minutes | 1,28 GB
Classical | Label: Signum Classics, Official Digital Download

Internationally acclaimed violinist Charlie Siem and pianist Itamar Golan release their debut album on Signum, including works by Kreisler, Sarasate, Paganini, Elgar and Wieniawski, showcasing Siem’s versatility and virtuosity in an intimate Parisian- style ‘salon’ programme.

Siem has appeared with many of the world’s finest orchestras and chamber ensembles, including: the Bergen Philharmonic, the Camerata Salzburg, the Czech National Symphony, the Israel Philharmonic, the London Symphony, the Moscow Philharmonic, the Oslo Philharmonic, the Rotterdam Philharmonic and the Royal Philharmonic Orchestra. He plays the 1735 Guarneri del Gesù violin, known as the ‘D’Egvill’.

TRACKLIST

1. Charlie Siem & Itamar Golan - Polonaise No. 1 in D Major, Op. 4
2. Charlie Siem & Itamar Golan - Triakontameron, 30 Moods and Scenes in Triple Measure: Xi. Alt Wien
3. Charlie Siem & Itamar Golan - Tambourin Chinois, Op. 3
4. Charlie Siem & Itamar Golan - Recitativo und Scherzo-caprice, Op. 6
5. Charlie Siem & Itamar Golan - Légende, Op. 17
6. Charlie Siem & Itamar Golan - Chanson de Nuit and Chanson de Matin, Op. 15: Ii. Chanson de Matin
7. Charlie Siem & Itamar Golan - Chanson de Nuit and Chanson de Matin, Op. 15: I. Chanson de Nuit
8. Charlie Siem & Itamar Golan - Introduction et tarentelle, Op. 43
9. Charlie Siem & Itamar Golan - 3 Alt-wiener Tanzweisen: Iii. Schon Rosmarin
10. Charlie Siem & Itamar Golan - 3 Alt-wiener Tanzweisen: Ii. Liebesfreud
11. Charlie Siem & Itamar Golan - 3 Alt-wiener Tanzweisen: I. Liebesleid
12. Charlie Siem & Itamar Golan - Polonaise Brillante No. 2 in A Major, Op. 21
13. Charlie Siem & Itamar Golan - Cantabile, MS 109 Op. 17
14. Charlie Siem & Itamar Golan - Chaconne in G Minor
15. Charlie Siem & Itamar Golan - The Sally Gardens

foobar2000 1.6.2 / Dynamic Range Meter 1.1.1
log date: 2020-11-21 17:10:11

––––––––––––––––––––––––––––––––––––––––
Analyzed: Charlie Siem / Between the Clouds
––––––––––––––––––––––––––––––––––––––––

DR Peak RMS Duration Track
––––––––––––––––––––––––––––––––––––––––
DR14 -2.47 dB -21.51 dB 5:34 01-Polonaise No. 1 in D Major, Op. 4
DR13 -3.64 dB -23.23 dB 2:28 02-Triakontameron, 30 Moods and Scenes in Triple Measure: XI. Alt Wien (Arr. Jascha Heifetz)
DR16 -2.15 dB -23.31 dB 3:49 03-Tambourin Chinois, Op. 3
DR15 -5.52 dB -26.44 dB 4:43 04-Recitativo und Scherzo-Caprice, Op. 6
DR14 -3.67 dB -23.12 dB 7:39 05-Legende, Op. 17
DR12 -4.78 dB -22.85 dB 2:52 06-Chanson de Nuit and Chanson de Matin, Op. 15: II. Chanson de Matin
DR13 -4.54 dB -24.15 dB 4:31 07-Chanson de Nuit and Chanson de Matin, Op. 15: I. Chanson de Nuit
DR14 -2.72 dB -22.35 dB 4:56 08-Introduction et Tarentelle, Op. 43
DR12 -7.16 dB -23.87 dB 2:09 09-3 Alt-Wiener Tanzweisen: III. Schon Rosmarin
DR14 -3.69 dB -22.13 dB 3:26 10-3 Alt-Wiener Tanzweisen: II. Liebesfreud
DR14 -7.23 dB -27.79 dB 3:24 11-3 Alt-Wiener Tanzweisen: I. Liebesleid
DR14 -1.13 dB -20.99 dB 9:50 12-Polonaise Brillante No. 2 in A Major, Op. 21
DR12 -9.84 dB -25.13 dB 3:18 13-Cantabile, Op. 17, MS 109
DR14 -1.69 dB -21.26 dB 10:50 14-Chaconne in G Minor
DR12 -9.13 dB -26.84 dB 2:12 15-The Sally Gardens (Arr. Charlie Siem)
––––––––––––––––––––––––––––––––––––––––

Number of tracks: 15
Official DR value: DR14

Samplerate: 96000 Hz
Channels: 2
Bits per sample: 24
Bitrate: 2507 kbps
Codec: FLAC
================================================================================



Thanks to the Original customer.