Tags
Language
Tags

Chris Connor - Sings The Complete George Gershwin Almanac Of Song (1957/2021) [Official Digital Download 24/96]

Posted By: pyatak
Chris Connor - Sings The Complete George Gershwin Almanac Of Song (1957/2021) [Official Digital Download 24/96]

Chris Connor - Sings The Complete George Gershwin Almanac Of Song (1957/2021) [Official Digital Download 24/96]
FLAC (tracks) 24-bit/96 kHz | Front Cover | Time - 92:13 minutes | 1,86 GB
Vocal Jazz | Label: RevOla, Official Digital Download

Chris Connor is not as well recognized as some other jazz vocalists, for example, June Christy. Connor is every bid as talented and a pleasure to listen to. So nice to hear songs that are REAL music and not a bunch of rapidly spoken words that make no sense. Great dealer who went out of the way to ship quickly. All round good experience.

TRACKLIST

01. Chris Connor - But Not For Me (Remastered)
02. Chris Connor - Of Thee I Sing (Remastered)
03. Chris Connor - Strike Up The Band (Remastered)
04. Chris Connor - I've Got A Crush On You (Remastered)
05. Chris Connor - Soon (Remastered)
06. Chris Connor - Liza (Remastered)
07. Chris Connor - Looking For A Boy (Remastered)
08. Chris Connor - I Got Rhythm (Remastered)
09. Chris Connor - I've Got Beginner's Luck (Remastered)
10. Chris Connor - Slap That Bass (Remastered)
11. Chris Connor - For You, For Me, For Evermore (Remastered)
12. Chris Connor - Love Is Sweeping The Country (Remastered)
13. Chris Connor - The Man I Love (Remastered)
14. Chris Connor - S'Wonderful (Remastered)
15. Chris Connor - A Foggy Day (Remastered)
16. Chris Connor - Medley (From 'Porgy And Bess') Summertime; There's A Boat That's Leaving Soon;I Love You Porgy (Remastered)
17. Chris Connor - Blah Blah Blah; They Can't Take That Away From Me (Remastered)
18. Chris Connor - Summertime (Remastered)
19. Chris Connor - Clap Yo Hands (Remastered)
20. Chris Connor - Little Jazzbird (Remastered)
21. Chris Connor - I Was Doing All Right (Remastered)
22. Chris Connor - My One And Only (Remastered)
23. Chris Connor - That Certain Feeling (Remastered)
24. Chris Connor - Fascinating Rhythm (Remastered)
25. Chris Connor - Our Love Is Here To Stay (Remastered)
26. Chris Connor - They All Laughed (Remastered)
27. Chris Connor - How Long Has This Been Going On? (Remastered)
28. Chris Connor - I Can't Be Bothered Now (Remastered)
29. Chris Connor - Love Walked In (Remastered)
30. Chris Connor - Somebody Loves Me (Remastered)
31. Chris Connor - Embraceable You (Remastered)
32. Chris Connor - Nice Work If You Can Get It (Remastered)
33. Chris Connor - Strike Up The Band (Remastered)
34. Chris Connor - They Can't Take That Away From Me (Remastered)

foobar2000 1.6.2 / Dynamic Range Meter 1.1.1
log date: 2021-10-14 21:28:46

––––––––––––––––––––––––––––––––––––––––
Analyzed: Chris Connor / Sings The Complete George Gershwin Almanac Of Song
––––––––––––––––––––––––––––––––––––––––

DR Peak RMS Duration Track
––––––––––––––––––––––––––––––––––––––––
DR12 -2.68 dB -18.54 dB 3:48 01-But Not For Me (Remastered)
DR11 -1.89 dB -15.02 dB 1:27 02-Of Thee I Sing (Remastered)
DR11 0.00 dB -12.82 dB 2:31 03-Strike Up The Band (Remastered)
DR13 -2.07 dB -18.48 dB 2:15 04-I've Got A Crush On You (Remastered)
DR12 -0.73 dB -16.38 dB 2:01 05-Soon (Remastered)
DR11 -1.30 dB -15.68 dB 2:37 06-Liza (Remastered)
DR12 -1.10 dB -17.84 dB 3:04 07-Looking For A Boy (Remastered)
DR10 -2.42 dB -15.09 dB 2:04 08-I Got Rhythm (Remastered)
DR11 -2.13 dB -15.25 dB 2:10 09-I've Got Beginner's Luck (Remastered)
DR11 -1.78 dB -14.60 dB 2:00 10-Slap That Bass (Remastered)
DR11 -4.68 dB -18.74 dB 3:34 11-For You, For Me, For Evermore (Remastered)
DR11 -1.36 dB -15.08 dB 2:53 12-Love Is Sweeping The Country (Remastered)
DR10 -2.07 dB -14.87 dB 2:36 13-The Man I Love (Remastered)
DR11 -0.88 dB -15.69 dB 2:24 14-S'Wonderful (Remastered)
DR12 -2.96 dB -18.73 dB 3:17 15-A Foggy Day (Remastered)
DR11 -0.48 dB -15.01 dB 7:13 16-Medley (From 'Porgy And Bess') Summertime; There's A Boat That's Leaving Soon;I Love You Porgy (Remastered)
DR12 -2.08 dB -18.51 dB 2:55 17-Blah Blah Blah; They Can't Take That Away From Me (Remastered)
DR11 0.00 dB -15.59 dB 3:11 18-Summertime (Remastered)
DR13 0.00 dB -15.52 dB 2:25 19-Clap Yo Hands (Remastered)
DR12 -1.36 dB -16.88 dB 3:12 20-Little Jazzbird (Remastered)
DR11 -0.87 dB -13.97 dB 2:15 21-I Was Doing All Right (Remastered)
DR13 -0.23 dB -15.41 dB 2:40 22-My One And Only (Remastered)
DR11 -0.38 dB -14.52 dB 2:13 23-That Certain Feeling (Remastered)
DR12 0.00 dB -15.39 dB 2:34 24-Fascinating Rhythm (Remastered)
DR10 -3.96 dB -16.99 dB 3:17 25-Our Love Is Here To Stay (Remastered)
DR11 -1.50 dB -14.96 dB 2:15 26-They All Laughed (Remastered)
DR12 -1.69 dB -16.69 dB 4:00 27-How Long Has This Been Going On? (Remastered)
DR11 -0.25 dB -13.35 dB 1:48 28-I Can't Be Bothered Now (Remastered)
DR12 -1.58 dB -17.41 dB 3:00 29-Love Walked In (Remastered)
DR11 -0.80 dB -13.26 dB 2:23 30-Somebody Loves Me (Remastered)
DR10 -1.82 dB -14.44 dB 2:33 31-Embraceable You (Remastered)
DR11 -0.98 dB -14.33 dB 1:20 32-Nice Work If You Can Get It (Remastered)
DR10 -1.36 dB -15.60 dB 2:10 33-Strike Up The Band (Remastered)
DR11 -1.52 dB -15.34 dB 2:10 34-They Can't Take That Away From Me (Remastered)
––––––––––––––––––––––––––––––––––––––––

Number of tracks: 34
Official DR value: DR11

Samplerate: 96000 Hz
Channels: 2
Bits per sample: 24
Bitrate: 2178 kbps
Codec: FLAC
================================================================================



Thanks to the Original customer.