Tags
Language
Tags

Chris Connor - The Rich Sound Of Chris Connor (1958/2021) [Official Digital Download]

Posted By: pyatak
Chris Connor - The Rich Sound Of Chris Connor (1958/2021) [Official Digital Download]

Chris Connor - The Rich Sound Of Chris Connor (1958/2021) [Official Digital Download]
FLAC (tracks) 24-bit/44.1 kHz | Front Cover | Time - 64:08 minutes | 664 MB
Vocal Jazz | Label: RevOla, Official Digital Download

Chris Connor is an album by jazz singer Chris Connor. Atlantic Records released the album, Connor's first for the label, in 1956. The recording was Atlantic's first jazz vocal LP record.

TRACKLIST

1. Chris Connor - Jeepers Creepers! (Remastered)
2. Chris Connor - If I Should Lose You (Remastered)
3. Chris Connor - And The Bull Walked Around, Olay! (Remastered)
4. Chris Connor - All About Ronnie (Remastered)
5. Chris Connor - I Get A Kick Out Of You (Remastered)
6. Chris Connor - Where Flamingos Fly (Remastered)
7. Chris Connor - Miser's Serenade (Remastered)
8. Chris Connor - Ask Me (Remastered)
9. Chris Connor - Chiquita From Chi-Wah-Wah (Remastered)
10. Chris Connor - Blue Silhouette (Remastered)
11. Chris Connor - Everything I Love (Remastered)
12. Chris Connor - Gone With The Wind (Remastered)
13. Chris Connor - How Long Has This Been Going On? (Remastered)
14. Chris Connor - Stella By Starlight (Remastered)
15. Chris Connor - Lullaby Of Birdland (Remastered)
16. Chris Connor - I Hear Music (Remastered)
17. Chris Connor - Out Of This World (Remastered)
18. Chris Connor - Lush Life (Remastered)
19. Chris Connor - From This Moment On (Remastered)
20. Chris Connor - In Other Words (Remastered)
21. Chris Connor - A Cottage For Sale (Remastered)
22. Chris Connor - Spring Is Here (Remastered)
23. Chris Connor - Indian Summer (Remastered)
24. Chris Connor - Goodbye (Remastered)

foobar2000 1.6.2 / Dynamic Range Meter 1.1.1
log date: 2021-06-16 20:24:46

––––––––––––––––––––––––––––––––––––––––
Analyzed: Chris Connor / The Rich Sound Of Chris Connor
––––––––––––––––––––––––––––––––––––––––

DR Peak RMS Duration Track
––––––––––––––––––––––––––––––––––––––––
DR13 -1.43 dB -16.44 dB 2:18 01-Jeepers Creepers! (Remastered)
DR11 -1.95 dB -15.49 dB 2:39 02-If I Should Lose You (Remastered)
DR12 -0.86 dB -14.98 dB 2:41 03-And The Bull Walked Around, Olay! (Remastered)
DR12 -0.78 dB -15.98 dB 2:51 04-All About Ronnie (Remastered)
DR12 -0.40 dB -16.15 dB 2:43 05-I Get A Kick Out Of You (Remastered)
DR12 -1.28 dB -18.14 dB 3:26 06-Where Flamingos Fly (Remastered)
DR12 -0.63 dB -14.90 dB 2:45 07-Miser's Serenade (Remastered)
DR11 -0.15 dB -14.37 dB 2:44 08-Ask Me (Remastered)
DR12 -0.83 dB -14.40 dB 2:47 09-Chiquita From Chi-Wah-Wah (Remastered)
DR11 -0.90 dB -14.17 dB 2:43 10-Blue Silhouette (Remastered)
DR11 0.00 dB -14.38 dB 2:17 11-Everything I Love (Remastered)
DR12 -1.50 dB -16.04 dB 2:18 12-Gone With The Wind (Remastered)
DR10 -1.53 dB -15.63 dB 2:32 13-How Long Has This Been Going On? (Remastered)
DR11 -0.30 dB -15.45 dB 2:27 14-Stella By Starlight (Remastered)
DR12 -1.33 dB -15.78 dB 2:23 15-Lullaby Of Birdland (Remastered)
DR13 -2.27 dB -17.16 dB 2:20 16-I Hear Music (Remastered)
DR12 -1.51 dB -16.44 dB 2:56 17-Out Of This World (Remastered)
DR13 -2.20 dB -19.53 dB 2:54 18-Lush Life (Remastered)
DR12 -1.57 dB -16.54 dB 2:30 19-From This Moment On (Remastered)
DR13 -1.48 dB -19.05 dB 3:07 20-In Other Words (Remastered)
DR10 -2.50 dB -16.74 dB 2:35 21-A Cottage For Sale (Remastered)
DR11 -0.51 dB -16.59 dB 2:53 22-Spring Is Here (Remastered)
DR12 -0.89 dB -16.93 dB 2:56 23-Indian Summer (Remastered)
DR11 -2.30 dB -18.88 dB 2:33 24-Goodbye (Remastered)
––––––––––––––––––––––––––––––––––––––––

Number of tracks: 24
Official DR value: DR12

Samplerate: 44100 Hz
Channels: 2
Bits per sample: 24
Bitrate: 1334 kbps
Codec: FLAC
================================================================================



Thanks to the Original customer.