Tags
Language
Tags
February 2023
Su Mo Tu We Th Fr Sa
29 30 31 1 2 3 4
5 6 7 8 9 10 11
12 13 14 15 16 17 18
19 20 21 22 23 24 25
26 27 28 1 2 3 4

Christian Lindberg - 40 Years on Stage (2021) [Official Digital Download]

Posted By: pyatak
Christian Lindberg - 40 Years on Stage (2021) [Official Digital Download]

Christian Lindberg - 40 Years on Stage (2021) [Official Digital Download]
FLAC (tracks) 24-bit/48 kHz | Front Cover | Time - 76:25 minutes | 642 MB
Classical | Label: EUROPEAN GRAMOPHONE, Official Digital Download

Christian Lindberg (born 15 February 1958) is a Swedish trombonist, conductor and composer.

In 1981, Lindberg won the Nordic Soloists' Biennale competition. His concert debut was in 1984 with the Trombone Concerto by Henri Tomasi. That same year, he signed a 3-CD recording contract with BIS Records. His first solo recording was "The Virtuoso Trombone". Lindberg has recorded over 60 albums, for BIS[4] and several other labels. His musical collaborators in Sweden have included pianist Roland Pöntinen and composer Jan Sandström.

Lindberg is noted for his performances of contemporary music, as well as expanding the repertoire of concerti for trombone. In 2006, he estimated that over the prior 25 years, composers wrote 82 works for him. On 7 September 2017, Lindberg gave his 100th trombone concerto premiere. Lindberg was the soloist in the premiere of Sandström's Motorbike Concerto. In addition to the Sandström, his repertoire includes Luciano Berio's Sequenza V, Fredrik Högberg's The Ballad of Kit Bones and Su ba do be.

Lindberg began to compose in the 1990s at the encouragement of Sandström. Lindberg's first-performed work was Arabenne for trombone and strings, recorded in 1997. Other compositions have included Mandrake in the Corner, Chick 'a' bone Checkout, from 2006 and written for Charles Vernon of the Chicago Symphony Orchestra, and Kundraan (2008).

In 2000, Lindberg made his conducting debut with the Northern Sinfonia in the UK. He has regularly conducted the Nordic Chamber Orchestra (chief conductor, 2004–2011) and the Swedish Wind Ensemble [sv] (2005–2012).He was principal conductor of the Arctic Philharmonic Orchestra, and was contracted to the orchestra until 2018. Since 2016, Lindberg is conductor and music director at the Israel Netanya Kibbutz Orchestra.

In 2011 Lindberg and the Norrköping Symphony Orchestra initiated the Allan Pettersson Project, the purpose of which is to record and issue all of Pettersson’s symphonies on CD.

TRACKLIST

1. Christian Lindberg - Guillaume Tell Overture: I
2. Christian Lindberg - Guillaume Tell Overture: II
3. Christian Lindberg - Guillaume Tell Overture: III
4. Christian Lindberg - Guillaume Tell Overture: IV
5. Christian Lindberg - Guillaume Tell Overture: V
6. Christian Lindberg - Guillaume Tell Overture: VI
7. Christian Lindberg - Guillaume Tell Overture: VII
8. Christian Lindberg - Guillaume Tell Overture: VIII
9. Christian Lindberg - Guillaume Tell Overture: IX
10. Christian Lindberg - Guillaume Tell Overture: X
11. Christian Lindberg - Guillaume Tell Overture: XI
12. Christian Lindberg - Guillaume Tell Overture: XII
13. Christian Lindberg - Guillaume Tell Overture: XIII
14. Roland Pöntinen - L'Heure Bleue: I
15. Roland Pöntinen - L'Heure Bleue: II
16. Roland Pöntinen - L'Heure Bleue: III
17. Roland Pöntinen - L'Heure Bleue: IV
18. Roland Pöntinen - L'Heure Bleue: V
19. Roland Pöntinen - L'Heure Bleue: VI
20. Roland Pöntinen - L'Heure Bleue: VII
21. Roland Pöntinen - L'Heure Bleue: VIII
22. Roland Pöntinen - L'Heure Bleue: IX
23. Roland Pöntinen - L'Heure Bleue: X
24. Roland Pöntinen - L'Heure Bleue: XI
25. Roland Pöntinen - L'Heure Bleue: XII
26. Christian Lindberg - Carmen Suite: I
27. Christian Lindberg - Carmen Suite: II
28. Christian Lindberg - Carmen Suite: III
29. Christian Lindberg - Carmen Suite: IV
30. Christian Lindberg - Carmen Suite: V
31. Christian Lindberg - Carmen Suite: VI
32. Christian Lindberg - Carmen Suite: VII
33. Christian Lindberg - Carmen Suite: VIII
34. Christian Lindberg - Carmen Suite: IX
35. Christian Lindberg - Carmen Suite: X
36. Christian Lindberg - Carmen Suite: XI
37. Christian Lindberg - Carmen Suite: XII
38. Christian Lindberg - Carmen Suite: XIII
39. Christian Lindberg - Earth Fanfare
40. Christian Lindberg - Light
41. Christian Lindberg - Eagle Dance One
42. Christian Lindberg - Eagle Dance Two
43. Christian Lindberg - Broken Sky
44. Christian Lindberg - High Altitude
45. Christian Lindberg - Sailing
46. Christian Lindberg - Rising
47. Christian Lindberg - Burning
48. Christian Lindberg - Lullaby
49. Christian Lindberg - Loneliness
50. Christian Lindberg - Wings in Action
51. Christian Lindberg - Black Hawk Flying
52. Christian Lindberg - Surfing on the Wind
53. Christian Lindberg - Wings on Fire
54. Christian Lindberg - Coda
55. Christian Lindberg - The Nutcracker Suite, Op. 71a, TH 35: 1. Miniature Overture. Allegro giusto I
56. Christian Lindberg - The Nutcracker Suite, Op. 71a, TH 35: 1. Miniature Overture. Allegro giusto II
57. Christian Lindberg - The Nutcracker Suite, Op. 71a, TH 35: 1. Miniature Overture. Allegro giusto III
58. Christian Lindberg - The Nutcracker Suite, Op. 71a, TH 35: 1. Miniature Overture. Allegro giusto IV
59. Christian Lindberg - The Nutcracker Suite, Op. 71a, TH 35: 2a. March. Tempo di marcia I
60. Christian Lindberg - The Nutcracker Suite, Op. 71a, TH 35: 2a. March. Tempo di marcia II
61. Christian Lindberg - The Nutcracker Suite, Op. 71a, TH 35: 2b. Dance of the Sugar-Plum fairy. Andante ma non troppo I
62. Christian Lindberg - The Nutcracker Suite, Op. 71a, TH 35: 2b. Dance of the Sugar-Plum fairy. Andante ma non troppo II
63. Christian Lindberg - The Nutcracker Suite, Op. 71a, TH 35: 2c. Russian Dance. Trepak. Tempo di Trepak, molto vivace
64. Christian Lindberg - The Nutcracker Suite, Op. 71a, TH 35: 2d. Arabian Dance. Allegretto I
65. Christian Lindberg - The Nutcracker Suite, Op. 71a, TH 35: 2d. Arabian Dance. Allegretto II
66. Christian Lindberg - The Nutcracker Suite, Op. 71a, TH 35: 2d. Arabian Dance. Allegretto III
67. Christian Lindberg - The Nutcracker Suite, Op. 71a, TH 35: 2e Chinese Dance. Allegro moderato
68. Christian Lindberg - The Nutcracker Suite, Op. 71a, TH 35: 2f. Dance of the Reed-Pipes. Moderato assai I
69. Christian Lindberg - The Nutcracker Suite, Op. 71a, TH 35: 2f. Dance of the Reed-Pipes. Moderato assai II
70. Christian Lindberg - The Nutcracker Suite, Op. 71a, TH 35: 3. Walz of the Flowers. Tempo di valse I
71. Christian Lindberg - The Nutcracker Suite, Op. 71a, TH 35: 3. Walz of the Flowers. Tempo di valse II
72. Christian Lindberg - The Nutcracker Suite, Op. 71a, TH 35: 3. Walz of the Flowers. Tempo di valse III
73. Christian Lindberg - The Nutcracker Suite, Op. 71a, TH 35: 3. Walz of the Flowers. Tempo di valse IV
74. Christian Lindberg - The Nutcracker Suite, Op. 71a, TH 35: 3. Walz of the Flowers. Tempo di valse V
75. Christian Lindberg - The Nutcracker Suite, Op. 71a, TH 35: 3. Walz of the Flowers. Tempo di valse VI

foobar2000 1.6.2 / Dynamic Range Meter 1.1.1
log date: 2021-08-04 14:18:55

––––––––––––––––––––––––––––––––––––––––
Analyzed: Christian Lindberg / 40 Years on Stage (1-63)
Roland Pöntinen / 40 Years on Stage (64-75)
––––––––––––––––––––––––––––––––––––––––

DR Peak RMS Duration Track
––––––––––––––––––––––––––––––––––––––––
DR9 -7.24 dB -20.89 dB 0:42 01-Guillaume Tell Overture: I
DR11 -3.18 dB -18.44 dB 1:24 02-Guillaume Tell Overture: II
DR9 -8.09 dB -21.15 dB 0:46 03-Guillaume Tell Overture: III
DR11 -0.63 dB -18.54 dB 0:59 04-Guillaume Tell Overture: IV
DR9 -0.10 dB -11.36 dB 1:09 05-Guillaume Tell Overture: V
DR11 -4.52 dB -18.74 dB 0:42 06-Guillaume Tell Overture: VI
DR9 -5.57 dB -22.26 dB 1:08 07-Guillaume Tell Overture: VII
DR9 -8.53 dB -20.41 dB 0:40 08-Guillaume Tell Overture: VIII
DR9 -8.25 dB -20.33 dB 1:02 09-Guillaume Tell Overture: IX
DR11 -0.10 dB -15.81 dB 0:45 10-Guillaume Tell Overture: X
DR11 -0.33 dB -16.39 dB 0:49 11-Guillaume Tell Overture: XI
DR10 -0.10 dB -12.93 dB 1:18 12-Guillaume Tell Overture: XII
DR9 -0.31 dB -13.81 dB 0:48 13-Guillaume Tell Overture: XIII
DR11 -0.45 dB -14.24 dB 1:10 26-Carmen Suite: I
DR11 -5.94 dB -21.11 dB 0:32 27-Carmen Suite: II
DR11 -0.25 dB -15.20 dB 0:54 28-Carmen Suite: III
DR9 -7.77 dB -21.00 dB 0:44 29-Carmen Suite: IV
DR11 -2.77 dB -18.97 dB 1:16 30-Carmen Suite: V
DR11 -2.58 dB -19.27 dB 0:42 31-Carmen Suite: VI
DR12 -4.29 dB -21.50 dB 1:08 32-Carmen Suite: VII
DR12 -3.67 dB -19.70 dB 0:42 33-Carmen Suite: VIII
DR11 -8.59 dB -23.90 dB 1:02 34-Carmen Suite: IX
DR10 -4.50 dB -19.22 dB 0:34 35-Carmen Suite: X
DR10 -1.02 dB -16.54 dB 1:04 36-Carmen Suite: XI
DR11 -5.36 dB -21.89 dB 1:35 37-Carmen Suite: XII
DR11 -0.20 dB -14.42 dB 1:23 38-Carmen Suite: XIII
DR10 -1.44 dB -15.66 dB 1:01 39-Earth Fanfare
DR10 -0.50 dB -16.86 dB 1:02 40-Light
DR11 -0.50 dB -15.90 dB 1:16 41-Eagle Dance One
DR10 -1.28 dB -15.29 dB 1:08 42-Eagle Dance Two
DR9 -3.18 dB -19.59 dB 0:34 43-Broken Sky
DR10 -0.50 dB -17.87 dB 0:52 44-High Altitude
DR10 -5.40 dB -20.86 dB 1:03 45-Sailing
DR10 -0.50 dB -13.35 dB 1:10 46-Rising
DR11 -0.60 dB -18.62 dB 0:38 47-Burning
DR10 -15.83 dB -29.28 dB 0:58 48-Lullaby
DR6 -2.00 dB -22.67 dB 0:56 49-Loneliness
DR9 -0.51 dB -14.53 dB 0:55 50-Wings in Action
DR10 -2.24 dB -14.85 dB 0:50 51-Black Hawk Flying
DR11 -0.50 dB -15.10 dB 1:09 52-Surfing on the Wind
DR11 -0.50 dB -13.63 dB 0:52 53-Wings on Fire
DR12 -0.50 dB -16.71 dB 1:04 54-Coda
DR11 -0.20 dB -16.86 dB 0:53 55-The Nutcracker Suite, Op. 71a, TH 35: 1. Miniature Overture. Allegro giusto I
DR11 -1.63 dB -16.26 dB 0:53 56-The Nutcracker Suite, Op. 71a, TH 35: 1. Miniature Overture. Allegro giusto II
DR12 -0.20 dB -17.17 dB 0:51 57-The Nutcracker Suite, Op. 71a, TH 35: 1. Miniature Overture. Allegro giusto III
DR12 -0.20 dB -16.18 dB 1:09 58-The Nutcracker Suite, Op. 71a, TH 35: 1. Miniature Overture. Allegro giusto IV
DR11 -0.20 dB -14.81 dB 1:13 59-The Nutcracker Suite, Op. 71a, TH 35: 2a. March. Tempo di marcia I
DR11 -0.20 dB -14.55 dB 1:33 60-The Nutcracker Suite, Op. 71a, TH 35: 2a. March. Tempo di marcia II
DR12 -3.00 dB -20.59 dB 1:15 61-The Nutcracker Suite, Op. 71a, TH 35: 2b. Dance of the Sugar-Plum fairy. Andante ma non troppo I
DR12 -7.28 dB -25.62 dB 0:53 62-The Nutcracker Suite, Op. 71a, TH 35: 2b. Dance of the Sugar-Plum fairy. Andante ma non troppo II
DR11 -0.20 dB -13.55 dB 1:13 63-The Nutcracker Suite, Op. 71a, TH 35: 2c. Russian Dance. Trepak. Tempo di Trepak, molto vivace
DR10 -5.75 dB -19.80 dB 1:22 64-The Nutcracker Suite, Op. 71a, TH 35: 2d. Arabian Dance. Allegretto I
DR10 -4.14 dB -17.74 dB 0:57 65-The Nutcracker Suite, Op. 71a, TH 35: 2d. Arabian Dance. Allegretto II
DR10 -6.32 dB -20.09 dB 1:11 66-The Nutcracker Suite, Op. 71a, TH 35: 2d. Arabian Dance. Allegretto III
DR11 -1.52 dB -15.38 dB 1:16 67-The Nutcracker Suite, Op. 71a, TH 35: 2e Chinese Dance. Allegro moderato
DR12 -1.06 dB -16.35 dB 0:54 68-The Nutcracker Suite, Op. 71a, TH 35: 2f. Dance of the Reed-Pipes. Moderato assai I
DR13 -0.20 dB -16.93 dB 1:46 69-The Nutcracker Suite, Op. 71a, TH 35: 2f. Dance of the Reed-Pipes. Moderato assai II
DR10 -4.35 dB -18.26 dB 1:12 70-The Nutcracker Suite, Op. 71a, TH 35: 3. Walz of the Flowers. Tempo di valse I
DR10 -1.64 dB -15.43 dB 0:59 71-The Nutcracker Suite, Op. 71a, TH 35: 3. Walz of the Flowers. Tempo di valse II
DR11 -0.20 dB -14.50 dB 1:24 72-The Nutcracker Suite, Op. 71a, TH 35: 3. Walz of the Flowers. Tempo di valse III
DR10 -1.29 dB -14.86 dB 1:32 73-The Nutcracker Suite, Op. 71a, TH 35: 3. Walz of the Flowers. Tempo di valse IV
DR10 -0.89 dB -14.07 dB 1:07 74-The Nutcracker Suite, Op. 71a, TH 35: 3. Walz of the Flowers. Tempo di valse V
DR11 -0.20 dB -15.06 dB 1:23 75-The Nutcracker Suite, Op. 71a, TH 35: 3. Walz of the Flowers. Tempo di valse VI
DR11 -10.13 dB -25.10 dB 0:55 14-L'Heure Bleue: I
DR10 -2.22 dB -17.64 dB 1:13 15-L'Heure Bleue: II
DR9 -2.84 dB -15.10 dB 0:50 16-L'Heure Bleue: III
DR10 -0.10 dB -13.32 dB 1:05 17-L'Heure Bleue: IV
DR6 -4.85 dB -17.79 dB 0:53 18-L'Heure Bleue: V
DR13 -2.69 dB -19.68 dB 1:01 19-L'Heure Bleue: VI
DR10 -4.52 dB -19.82 dB 0:53 20-L'Heure Bleue: VII
DR9 -4.76 dB -18.49 dB 0:44 21-L'Heure Bleue: VIII
DR10 -0.10 dB -13.76 dB 1:05 22-L'Heure Bleue: IX
DR9 -0.10 dB -16.88 dB 1:02 23-L'Heure Bleue: X
DR10 -7.50 dB -25.12 dB 0:37 24-L'Heure Bleue: XI
DR11 -8.60 dB -24.93 dB 1:21 25-L'Heure Bleue: XII
––––––––––––––––––––––––––––––––––––––––

Number of tracks: 75
Official DR value: DR10

Samplerate: 48000 Hz
Channels: 2
Bits per sample: 24
Bitrate: 1078 kbps
Codec: FLAC
================================================================================



Thanks to the Original customer.