BBC National Orchestra of Wales & Kenneth Woods - Christopher Gunning: Symphonies 10, 2 and 12 (2019) [24/96]

Posted By: SERTiL
BBC National Orchestra of Wales & Kenneth Woods - Christopher Gunning: Symphonies 10, 2 and 12 (2019) [24/96]

BBC National Orchestra of Wales & Kenneth Woods - Christopher Gunning: Symphonies 10, 2 and 12 (2019)
FLAC (tracks) 24-bit/96 kHz | Time - 78:02 minutes | 1.42 GB
Studio Master, Official Digital Download | Artwork: Digital Booklet

Christopher Gunning has composed twelve symphonies, as well as concertos for the piano, violin, cello, flute, oboe, clarinet, saxophone, and guitar; many of these have now been recorded. He has also composed many scores for films and television dramas, including Agatha Christie’s ‘Poirot’, La Vie en Rose, Middlemarch, Cold Lazarus, Rebecca, Under Suspicion, Firelight, The Big Battalions, Wild Africa, When the Whales Came and Porterhouse Blue. With a career spanning 50 years, he has won 4 BAFTA and 3 Ivor Novello Awards, and BASCA’s prestigious Gold Badge Award.

Christopher studied composition with Edmund Rubbra and Sir Richard Rodney Bennett at the Guildhall School of Music and Drama. After a hugely successful career writing for the big and small screen he is now focussed on his classical work and releases.

Tracklist:
01. Symphony No. 10 (21:44)
02. Symphony No. 2: I (11:57)
03. Symphony No. 2: II (9:35)
04. Symphony No. 2: III (7:34)
05. Symphony No. 12: I (13:47)
06. Symphony No. 12: II (13:28)

foobar2000 1.3.7 / Dynamic Range Meter 1.1.1
log date: 2019-12-03 19:02:50

––––––––––––––––––––––––––––––––––––––––
Analyzed: BBC National Orchestra of Wales & Kenneth Woods / Christopher Gunning: Symphonies 10, 2 and 12
––––––––––––––––––––––––––––––––––––––––

DR Peak RMS Duration Track
––––––––––––––––––––––––––––––––––––––––
DR14 0.00 dB -19.36 dB 21:44 01-Symphony No. 10
DR13 0.00 dB -18.56 dB 11:57 02-Symphony No. 2: I
DR15 -1.39 dB -24.13 dB 9:35 03-Symphony No. 2: II
DR12 0.00 dB -16.45 dB 7:34 04-Symphony No. 2: III
DR14 0.00 dB -20.00 dB 13:47 05-Symphony No. 12: I
DR15 0.00 dB -21.08 dB 13:28 06-Symphony No. 12: II
––––––––––––––––––––––––––––––––––––––––

Number of tracks: 6
Official DR value: DR14

Samplerate: 96000 Hz
Channels: 2
Bits per sample: 24
Bitrate: 2590 kbps
Codec: FLAC
================================================================================


Thanks to the Original customer.