Tags
Language
Tags

Chuck Owen & The Jazz Surge - Within Us • Celebrating 25 Years of the Jazz Surge (2021) [Official Digital Download 24/96]

Posted By: pyatak
Chuck Owen & The Jazz Surge - Within Us • Celebrating 25 Years of the Jazz Surge (2021) [Official Digital Download 24/96]

Chuck Owen & The Jazz Surge - Within Us • Celebrating 25 Years of the Jazz Surge (2021) [Official Digital Download 24/96]
FLAC (tracks) 24-bit/96 kHz | Front Cover | Time - 66:26 minutes | 1,47 GB
Jazz | Label: MAMA Records, Official Digital Download

Seven-time Grammy finalist Chuck Owen and the Jazz Surge are back celebrating the 25th Anniversary of their first recording!

Hailed as “…imaginative, paradigm-shifting and often exhilarating*…”, “episodic, dramatic and picturesque**…”…of having a “…slow burn with spontaneous combustion***…”, Chuck Owen and the Jazz Surge have had a critically acclaimed ride. Here, they serve up another “…creative, poetic****” creation with compositions built from a lifetime of landmark moments in Owens’ life and musicianship baked into their trademark of “…remarkably beautiful music on the model of such predecessors as Gershwin’ ‘Rhapsody in Blue’ or Duke Ellington’s ‘A Tone Parallel to Harlem’.*****”

TRACKLIST

01. Chuck Owen & The Jazz Surge - Chelsea Shuffle
02. Chuck Owen & The Jazz Surge - Trail of the Ancients
03. Chuck Owen & The Jazz Surge - American Noir
04. Chuck Owen & The Jazz Surge - Milestones
05. Chuck Owen & The Jazz Surge - Apalachicola
06. Chuck Owen & The Jazz Surge - Sparks Fly
07. Chuck Owen & The Jazz Surge - The Better Claim
08. Chuck Owen & The Jazz Surge - Within Us (An Invincible Summer)

foobar2000 1.6.2 / Dynamic Range Meter 1.1.1
log date: 2021-09-03 02:48:30

––––––––––––––––––––––––––––––––––––––––
Analyzed: Chuck Owen & The Jazz Surge / Within Us • Celebrating 25 Years of the Jazz Surge
––––––––––––––––––––––––––––––––––––––––

DR Peak RMS Duration Track
––––––––––––––––––––––––––––––––––––––––
DR10 -1.46 dB -12.91 dB 6:27 01-Chelsea Shuffle
DR10 -1.34 dB -14.03 dB 11:59 02-Trail of the Ancients
DR9 -1.12 dB -13.08 dB 7:14 03-American Noir
DR10 -1.12 dB -13.82 dB 7:45 04-Milestones
DR10 -1.23 dB -14.76 dB 10:35 05-Apalachicola
DR10 -0.95 dB -12.87 dB 6:18 06-Sparks Fly
DR10 -1.17 dB -13.66 dB 9:34 07-The Better Claim
DR11 -0.95 dB -15.81 dB 6:36 08-Within Us (An Invincible Summer)
––––––––––––––––––––––––––––––––––––––––

Number of tracks: 8
Official DR value: DR10

Samplerate: 96000 Hz
Channels: 2
Bits per sample: 24
Bitrate: 3017 kbps
Codec: FLAC
================================================================================



Thanks to the Original customer.