Collegium Musicum of Paris - The Four Seasons - Concerto For Two Trumpets (1973/2021) [Official Digital Download 24/96]

Posted By: pyatak
Collegium Musicum of Paris - The Four Seasons - Concerto For Two Trumpets (1973/2021) [Official Digital Download 24/96]

Collegium Musicum of Paris - The Four Seasons- Concerto For Two Trumpets (1973/2021) [Official Digital Download 24/96]
FLAC (tracks) 24-bit/96 kHz | Front Cover | Time - 51:44 minutes | 842 MB
Classical | Label: Everest Records, Official Digital Download

Roland Douatte and Collegium Musicum De Paris present Vivaldi's monumental "Four Seasons", alongside the Concerto For Two Trumpets! Mastered from the original Everest Master Tapes, this series of releases from Countdown Media have been given new light and clarity through high-resolution digital transfer.

TRACKLIST

1. Collegium Musicum De Paris - Spring No 1 In E Major, P.241: I. Allegro
2. Collegium Musicum De Paris - Spring No 1 In E Major, P.241: II. Largo
3. Collegium Musicum De Paris - Spring No 1 In E Major, P.241: III. Allegro
4. Collegium Musicum De Paris - Summer No 2 In G Minor, P.336: I. Allegro non molto
5. Collegium Musicum De Paris - Summer No 2 In G Minor, P.336: II. Adagio
6. Collegium Musicum De Paris - Summer No 2 In G Minor, P.336: III. Presto
7. Collegium Musicum De Paris - Autumn No 3 In F Major, P.257: I. Allegro
8. Collegium Musicum De Paris - Autumn No 3 In F Major, P.257: II. Adagio molto
9. Collegium Musicum De Paris - Autumn No 3 In F Major, P.257: III. Allegro
10. Collegium Musicum De Paris - Winter No 4 In F Minor, P.442: I. Allegro non molto
11. Collegium Musicum De Paris - Winter No 4 In F Minor, P.442: II. Largo
12. Collegium Musicum De Paris - Winter No 4 In F Minor, P.442: III. Allegro
13. Collegium Musicum De Paris - Concerto for Two Trumpets: I. Allegro
14. Collegium Musicum De Paris - Concerto for Two Trumpets: II. Largo
15. Collegium Musicum De Paris - Concerto for Two Trumpets: III. Allegro

foobar2000 1.6.2 / Dynamic Range Meter 1.1.1
log date: 2021-03-29 22:16:18

––––––––––––––––––––––––––––––––––––––––
Analyzed: Collegium Musicum De Paris / The Four Seasons: Concerto For Two Trumpets
––––––––––––––––––––––––––––––––––––––––

DR Peak RMS Duration Track
––––––––––––––––––––––––––––––––––––––––
DR9 -1.62 dB -14.59 dB 3:25 01-Spring No 1 In E Major, P.241: I. Allegro
DR11 -6.28 dB -21.95 dB 2:53 02-Spring No 1 In E Major, P.241: II. Largo
DR9 -2.16 dB -15.59 dB 4:17 03-Spring No 1 In E Major, P.241: III. Allegro
DR11 -2.38 dB -18.95 dB 6:01 04-Summer No 2 In G Minor, P.336: I. Allegro non molto
DR13 -2.04 dB -21.97 dB 2:14 05-Summer No 2 In G Minor, P.336: II. Adagio
DR9 -1.57 dB -13.37 dB 2:55 06-Summer No 2 In G Minor, P.336: III. Presto
DR10 -1.58 dB -16.35 dB 6:11 07-Autumn No 3 In F Major, P.257: I. Allegro
DR11 -12.82 dB -27.86 dB 3:01 08-Autumn No 3 In F Major, P.257: II. Adagio molto
DR9 -1.58 dB -14.30 dB 3:45 09-Autumn No 3 In F Major, P.257: III. Allegro
DR10 -2.51 dB -18.50 dB 3:55 10-Winter No 4 In F Minor, P.442: I. Allegro non molto
DR11 -4.28 dB -20.81 dB 2:29 11-Winter No 4 In F Minor, P.442: II. Largo
DR10 -1.74 dB -18.12 dB 3:34 12-Winter No 4 In F Minor, P.442: III. Allegro
DR8 -1.75 dB -12.46 dB 2:53 13-Concerto for Two Trumpets: I. Allegro
DR9 -4.25 dB -19.59 dB 1:09 14-Concerto for Two Trumpets: II. Largo
DR8 -2.87 dB -13.72 dB 3:11 15-Concerto for Two Trumpets: III. Allegro
––––––––––––––––––––––––––––––––––––––––

Number of tracks: 15
Official DR value: DR10

Samplerate: 96000 Hz
Channels: 2
Bits per sample: 24
Bitrate: 2300 kbps
Codec: FLAC
================================================================================



Thanks to the Original customer.