Tags
Language
Tags

Concentus Musicus Wien - Schubert- Symphony No. 5 - Haydn- Symphony No. 99 (2021) [Official Digital Download 24/96]

Posted By: pyatak
Concentus Musicus Wien - Schubert- Symphony No. 5 - Haydn- Symphony No. 99 (2021) [Official Digital Download 24/96]

Concentus Musicus Wien - Schubert- Symphony No. 5 - Haydn- Symphony No. 99 (2021) [Official Digital Download 24/96]
FLAC (tracks) 24-bit/96 kHz | Front Cover | Time - 55:08 minutes | 1,08 GB
Classical | Label: Aparte, Official Digital Download

Concentus Musicus Wien continues its exploration of works of the Classical and pre-Romantic periods as envisioned by Nikolaus Harnoncourt. Stefan Gottfried conducts Schubert’s Symphony No. 5, written in 1816 at the age of 19, and the seventh of Haydn’s 12 London symphonies, No. 99, written in 1793. The former shows the melodic inventiveness and admirable mastery of form of a young composer, heir to the giant Haydn. Recorded live at the famous Musikverein in Vienna, this concert immortalises yet again the skill and the exceptional sound quality of this renowned progenitor of historically informed performance, which continues to perpetuate the work of its visionary founder.

TRACKLIST

1. Concentus Musicus Wien - I. Adagio - Vivace assai
2. Concentus Musicus Wien - II. Adagio
3. Concentus Musicus Wien - III. Menuetto e Trio. Allegretto
4. Concentus Musicus Wien - IV. Finale. Vivace
5. Concentus Musicus Wien - I. Allegro
6. Concentus Musicus Wien - II. Andante con moto
7. Concentus Musicus Wien - III. Menuetto. Allegro molto
8. Concentus Musicus Wien - IV. Allegro vivace

foobar2000 1.6.2 / Dynamic Range Meter 1.1.1
log date: 2021-05-21 03:23:34

––––––––––––––––––––––––––––––––––––––––
Analyzed: Concentus Musicus Wien / Schubert: Symphony No. 5 - Haydn: Symphony No. 99
––––––––––––––––––––––––––––––––––––––––

DR Peak RMS Duration Track
––––––––––––––––––––––––––––––––––––––––
DR9 -1.06 dB -12.83 dB 8:32 01-I. Adagio - Vivace assai
DR9 -1.06 dB -14.90 dB 8:01 02-II. Adagio
DR10 -1.06 dB -14.15 dB 5:22 03-III. Menuetto e Trio. Allegretto
DR9 -1.06 dB -14.12 dB 4:39 04-IV. Finale. Vivace
DR10 -1.06 dB -14.45 dB 7:15 05-I. Allegro
DR11 -1.06 dB -16.34 dB 9:30 06-II. Andante con moto
DR10 -1.06 dB -14.12 dB 6:02 07-III. Menuetto. Allegro molto
DR10 -1.06 dB -14.40 dB 5:53 08-IV. Allegro vivace
––––––––––––––––––––––––––––––––––––––––

Number of tracks: 8
Official DR value: DR9

Samplerate: 96000 Hz
Channels: 2
Bits per sample: 24
Bitrate: 2847 kbps
Codec: FLAC
================================================================================



Thanks to the Original customer.