Ike & Isaac de Martin - Construction Site (2018) [Official Digital Download]

Posted By: SERTiL
Ike & Isaac de Martin - Construction Site (2018) [Official Digital Download]

Ike & Isaac de Martin - Construction Site (2018)
FLAC (tracks) 24-bit/48 kHz | Time - 41:22 minutes | 494 MB
Studio Master, Official Digital Download | Artwork: Front Cover

Fascinated by the power of music, the craft of sound, and the ability enthralling the vibration of an instrument to draw away, I love to travel inside and outside myself, within and out of the borders.

Tracklist:
1. Flughafen Love Ft. Karla Stereochemistry 03:40
2. Auburn June 04:15
3. Plastikspoon Ft. Karla Stereochemistry 04:31
4. Das Birke 06:05
5. A Ballad to Ms. Forest Ft. Iva Mabbasta 03:59
6. BALCHIK GARTEN 06:19
7. Seeds 'n Flowers 04:48
8. Mother Don't Cry Ft. Alice Vivian 02:44
9. THE Journey into the Welcome 05:01

Personnel:
Isaac de Martin, guitars, banjo, electric bass, percussions, Fender Rhodes, mixing
Niklas Ahlsved, drums
Nicola Barbon, double bass
Riccardo Carli, electric bass, double bass
Alaa Arsheed, violin
Giacomo Li Volsi, harp
Fabio Calzavara, saxophone
Karla Stereochemistry, vocals
Iva Mabbasta, vocals
Alice Vivian, vocals
Hannu Lamminmäki, trombone
Abagar Quartet, vocals
Krastio Dimov, kaval

foobar2000 1.3.7 / Dynamic Range Meter 1.1.1
log date: 2018-06-19 10:24:14

––––––––––––––––––––––––––––––––––––––––
Analyzed: Ike & Isaac de Martin / Construction Site
––––––––––––––––––––––––––––––––––––––––

DR Peak RMS Duration Track
––––––––––––––––––––––––––––––––––––––––
DR6 -0.09 dB -8.09 dB 3:40 01-Flughafen Love Ft. Karla Stereochemistry
DR6 -0.10 dB -8.80 dB 4:15 02-Auburn June
DR6 -0.10 dB -8.09 dB 4:32 03-Plastikspoon Ft. Karla Stereochemistry
DR7 -0.10 dB -9.48 dB 6:05 04-Das Birke
DR6 -0.10 dB -8.61 dB 4:00 05-A Ballad to Ms. Forest Ft. Iva Mabbasta
DR8 -0.10 dB -10.84 dB 6:20 06-BALCHIK GARTEN
DR6 -0.10 dB -9.95 dB 4:48 07-Seeds 'n Flowers
DR7 -0.10 dB -9.44 dB 2:44 08-Mother Don't Cry Ft. Alice Vivian
DR7 -0.09 dB -9.61 dB 5:02 09-THE Journey into the Welcome
––––––––––––––––––––––––––––––––––––––––

Number of tracks: 9
Official DR value: DR7

Samplerate: 48000 Hz
Channels: 2
Bits per sample: 24
Bitrate: 1583 kbps
Codec: FLAC
================================================================================


Thanks to the Original customer.