Cyprien Katsaris - Mozart - Complete Piano Concertos, Vol.12 (Live - K.537 & 595) (1998/2020) [Official Digital Download]

Posted By: pyatak
Cyprien Katsaris - Mozart - Complete Piano Concertos, Vol.12 (Live - K.537 & 595) (1998/2020) [Official Digital Download]

Cyprien Katsaris - Mozart - Complete Piano Concertos, Vol.12 (Live - K.537 & 595) (1998/2020) [Official Digital Download]
FLAC (tracks) 24-bit/48 kHz | Front Cover | Time - 78:46 minutes | 728 MB
Classical | Label: Piano 21, Official Digital Download

Cyprien Katsaris (Greek: Κυπριανός Κατσαρής; born 5 May 1951) is a French-Cypriot virtuoso pianist, teacher and composer. Amongst his teachers were Monique de la Bruchollerie, a student of Emil von Sauer, who had been a pupil of Franz Liszt.

TRACKLIST

01. Katharine Goeldner - Recitativo "Ch’io mi scordi di te". Andantino - II. Rondo "Non temer, amato bene". Andante - Allegretto
02. Cyprien Katsaris - I. Allegro (Cadenza A by Katsaris)
03. Cyprien Katsaris - II. Larghetto
04. Cyprien Katsaris - III. Allegretto
05. Cyprien Katsaris - Additional Cadenza for the First Movement (Cadenza B by Katsaris)
06. Cyprien Katsaris - I. Allegro (Cadenza K. 624/626a, No. 34)
07. Cyprien Katsaris - II. Larghetto
08. Cyprien Katsaris - III. Allegro (Lead-in at Bar 130, K.624/626a, No.35 - Cadenza K.624/626a, No.36)

foobar2000 1.6.2 / Dynamic Range Meter 1.1.1
log date: 2021-01-12 20:10:35

––––––––––––––––––––––––––––––––––––––––
Analyzed: Cyprien Katsaris / Mozart: Complete Piano Concertos, Vol.12 (Live - K.537 & 595) (1-7)
Katharine Goeldner / Mozart: Complete Piano Concertos, Vol.12 (Live - K.537 & 595) (8)
––––––––––––––––––––––––––––––––––––––––

DR Peak RMS Duration Track
––––––––––––––––––––––––––––––––––––––––
DR15 -0.62 dB -21.82 dB 14:58 02-I. Allegro (Cadenza A by Katsaris)
DR14 -7.93 dB -27.72 dB 6:31 03-II. Larghetto
DR16 -1.62 dB -22.21 dB 11:01 04-III. Allegretto
DR13 -2.29 dB -19.79 dB 5:31 05-Additional Cadenza for the First Movement (Cadenza B by Katsaris)
DR14 -0.95 dB -20.37 dB 13:34 06-I. Allegro (Cadenza K. 624/626a, No. 34)
DR13 -5.86 dB -25.10 dB 7:48 07-II. Larghetto
DR15 0.00 dB -20.01 dB 9:03 08-III. Allegro (Lead-in at Bar 130, K.624/626a, No.35 - Cadenza K.624/626a, No.36)
DR16 -0.35 dB -21.71 dB 10:23 01-Recitativo "Ch’io mi scordi di te". Andantino - II. Rondo "Non temer, amato bene". Andante - Allegretto
––––––––––––––––––––––––––––––––––––––––

Number of tracks: 8
Official DR value: DR14

Samplerate: 48000 Hz
Channels: 2
Bits per sample: 24
Bitrate: 1315 kbps
Codec: FLAC
================================================================================



Thanks to the Original customer.