Tags
Language
Tags

Daishin Kashimoto, Emmanuel Pahud, Paul Meyer, Zvi Plesser, Eric Le Sage - Vienne 1900 (2020) [Official Digital Download 24/88]

Posted By: pyatak
Daishin Kashimoto, Emmanuel Pahud, Paul Meyer, Zvi Plesser, Eric Le Sage - Vienne 1900 (2020) [Official Digital Download 24/88]

Daishin Kashimoto, Emmanuel Pahud, Paul Meyer, Zvi Plesser, Eric Le Sage - Vienne 1900 (2020) [Official Digital Download 24/88]
FLAC (tracks) 24-bit/88.2 kHz | Front Cover | Time - 01:55:02 minutes | 1,85 GB
Classical | Label: Alpha, Official Digital Download

Daishin Kashimoto, Emmanuel Pahud, Paul Meyer, Zvi Plesser and Éric Le Sage, who have been close musical partners for years, joined forces once again at the Salon de Provence Chamber Music Festival to record this programme devoted to Viennese composers of the early twentieth century. The most famous and innovative of these are represented: Schoenberg with his Kammersymphonie no.1, Mahler with two lieder transcribed for flute and piano, Zemlinskys Clarinet Trio and several pieces by Berg. This is an album that encapsulates both the exhaustion of a bygone Romantic age and the avant-garde promises of a modern world still to be built.

TRACKLIST

1. Daishin Kashimoto, Emmanuel Pahud, Paul Meyer, Zvi Plesser, Eric Le Sage - Piano Trio, Op. 1: I. Allegro non troppo, con espressione
2. Daishin Kashimoto, Emmanuel Pahud, Paul Meyer, Zvi Plesser, Eric Le Sage - Piano Trio, Op. 1: II. Scherzo (Allegro)
3. Daishin Kashimoto, Emmanuel Pahud, Paul Meyer, Zvi Plesser, Eric Le Sage - Piano Trio, Op. 1: III. Larghetto
4. Daishin Kashimoto, Emmanuel Pahud, Paul Meyer, Zvi Plesser, Eric Le Sage - Piano Trio, Op. 1: IV. Finale (Allegro molto e energico)
5. Daishin Kashimoto, Emmanuel Pahud, Paul Meyer, Zvi Plesser, Eric Le Sage - Clarinet trio in D Minor, Op. 3 : I. Allegro ma non troppo
6. Daishin Kashimoto, Emmanuel Pahud, Paul Meyer, Zvi Plesser, Eric Le Sage - Clarinet trio in D Minor, Op. 3 : II. Andante
7. Daishin Kashimoto, Emmanuel Pahud, Paul Meyer, Zvi Plesser, Eric Le Sage - Clarinet trio in D Minor, Op. 3 : III. Allegro
8. Daishin Kashimoto, Emmanuel Pahud, Paul Meyer, Zvi Plesser, Eric Le Sage - Des Knaben Wunderhorn: Rheinlegendchen
9. Daishin Kashimoto, Emmanuel Pahud, Paul Meyer, Zvi Plesser, Eric Le Sage - Kindertotenlieder: Oft denk' ich, sie sind nur Ausgegangen
10. Daishin Kashimoto, Emmanuel Pahud, Paul Meyer, Zvi Plesser, Eric Le Sage - Piano Sonata in B Minor, Op. 1
11. Daishin Kashimoto, Emmanuel Pahud, Paul Meyer, Zvi Plesser, Eric Le Sage - Vier Stücke für Klarinette und Klavier, Op. 5: I. Mäßig
12. Daishin Kashimoto, Emmanuel Pahud, Paul Meyer, Zvi Plesser, Eric Le Sage - Vier Stücke für Klarinette und Klavier, Op. 5: II. Sehr Langsam
13. Daishin Kashimoto, Emmanuel Pahud, Paul Meyer, Zvi Plesser, Eric Le Sage - Vier Stücke für Klarinette und Klavier, Op. 5: III. Sehr Rasch
14. Daishin Kashimoto, Emmanuel Pahud, Paul Meyer, Zvi Plesser, Eric Le Sage - Vier Stücke für Klarinette und Klavier, Op. 5: IV. Langsam
15. Daishin Kashimoto, Emmanuel Pahud, Paul Meyer, Zvi Plesser, Eric Le Sage - Kammerkonzert: Adagio
16. Daishin Kashimoto, Emmanuel Pahud, Paul Meyer, Zvi Plesser, Eric Le Sage - Kammersymphonie No.1, Op. 9

foobar2000 1.3.16 / Dynamic Range Meter 1.1.1
log date: 2020-07-08 20:09:16

––––––––––––––––––––––––––––––––––––––––
Analyzed: Daishin Kashimoto, Emmanuel Pahud, Paul Meyer, Zvi Plesser, Eric Le Sage / Vienne 1900
––––––––––––––––––––––––––––––––––––––––

DR Peak RMS Duration Track
––––––––––––––––––––––––––––––––––––––––
DR12 -1.16 dB -17.21 dB 10:17 01-Piano Trio, Op. 1: I. Allegro non troppo, con espressione
DR11 -1.90 dB -17.29 dB 6:52 02-Piano Trio, Op. 1: II. Scherzo (Allegro)
DR13 -2.75 dB -21.42 dB 5:52 03-Piano Trio, Op. 1: III. Larghetto
DR11 -0.63 dB -17.23 dB 7:57 04-Piano Trio, Op. 1: IV. Finale (Allegro molto e energico)
DR10 -0.89 dB -15.61 dB 13:33 05-Clarinet trio in D Minor, Op. 3 : I. Allegro ma non troppo
DR11 -1.11 dB -17.04 dB 8:38 06-Clarinet trio in D Minor, Op. 3 : II. Andante
DR10 -0.96 dB -16.31 dB 5:04 07-Clarinet trio in D Minor, Op. 3 : III. Allegro
DR12 -5.30 dB -21.01 dB 3:03 08-Des Knaben Wunderhorn: Rheinlegendchen
DR12 -3.62 dB -21.03 dB 3:07 09-Kindertotenlieder: Oft denk' ich, sie sind nur Ausgegangen
DR12 -0.57 dB -17.82 dB 10:46 10-Piano Sonata in B Minor, Op. 1
DR10 -2.27 dB -18.91 dB 1:16 11-Vier Stücke für Klarinette und Klavier, Op. 5: I. Mäßig
DR10 -4.09 dB -23.67 dB 1:38 12-Vier Stücke für Klarinette und Klavier, Op. 5: II. Sehr Langsam
DR11 -6.72 dB -26.35 dB 1:06 13-Vier Stücke für Klarinette und Klavier, Op. 5: III. Sehr Rasch
DR14 -1.24 dB -23.64 dB 3:20 14-Vier Stücke für Klarinette und Klavier, Op. 5: IV. Langsam
DR13 -2.21 dB -20.97 dB 12:33 15-Kammerkonzert: Adagio
DR13 -0.54 dB -19.48 dB 20:00 16-Kammersymphonie No.1, Op. 9
––––––––––––––––––––––––––––––––––––––––

Number of tracks: 16
Official DR value: DR12

Samplerate: 88200 Hz
Channels: 2
Bits per sample: 24
Bitrate: 2330 kbps
Codec: FLAC
================================================================================



Thanks to the Original customer.