Tags
Language
Tags

Dan Ettinger - Tchaikovsky & Rachmaninoff - Orchestral Works (2021) [Official Digital Download 24/96]

Posted By: pyatak
Dan Ettinger - Tchaikovsky & Rachmaninoff - Orchestral Works (2021) [Official Digital Download 24/96]

Dan Ettinger - Tchaikovsky & Rachmaninoff - Orchestral Works (2021) [Official Digital Download 24/96]
FLAC (tracks) 24-bit/96 kHz | Front Cover | Time - 77:22 minutes | 1,3 GB
Classical | Label: haenssler CLASSIC, Official Digital Download

Dan Ettinger is one of the leading international conductors of his generation. Since the start of the 2015/2016 season he has been Principal Conductor of the Stuttgart Philharmonic and General Music Director of the City of Stuttgart. His contract was prematurely extended in July 2016 to run till the summer of 2023. Ettinger regularly conducts at the world’s great opera houses such as the Metropolitan Opera in New York, the Washington National Opera, London’s Royal Opera House at Covent Garden, the Opéra National de Paris, the New National Theatre in Tokyo, Opernhaus Zürich, the Salzburg Festival and the State Opera Houses of Vienna and Munich. Since 2018 Ettinger has taken up his new post as Music Director of the Israeli Opera in Tel Aviv. On this recording, Ettinger interprets Tchaikovsky’s Fifth Symphony, and Rachmaninoff’s Piano Concerto No. 1.

TRACKLIST

01. Alexander Korsantia, Stuttgarter Philharmoniker & Dan Ettinger - Piano Concerto No. 2 in C Minor, Op. 18: I. Moderato
02. Alexander Korsantia, Stuttgarter Philharmoniker & Dan Ettinger - Piano Concerto No. 2 in C Minor, Op. 18: II. Adagio sostenuto
03. Alexander Korsantia, Stuttgarter Philharmoniker & Dan Ettinger - Piano Concerto No. 2 in C Minor, Op. 18: III. Allegro scherzando
04. Stuttgarter Philharmoniker & Dan Ettinger - Symphony No. 4 in F Minor, Op. 36, TH 27: I. Andante sostenuto - Moderato con anima
05. Stuttgarter Philharmoniker & Dan Ettinger - Symphony No. 4 in F Minor, Op. 36, TH 27: II. Andantino in modo di canzona
06. Stuttgarter Philharmoniker & Dan Ettinger - Symphony No. 4 in F Minor, Op. 36, TH 27: III. Scherzo. Pizzicato ostinato
07. Stuttgarter Philharmoniker & Dan Ettinger - Symphony No. 4 in F Minor, Op. 36, TH 27: IV. Finale. Allegro con fuoco

foobar2000 1.6.1 / Dynamic Range Meter 1.1.1
log date: 2021-01-12 23:03:32

––––––––––––––––––––––––––––––––––––––––
Analyzed: Alexander Korsantia, Stuttgarter Philharmoniker & Dan Ettinger / Tchaikovsky & Rachmaninoff: Orchestral Works (1-3)
Stuttgarter Philharmoniker & Dan Ettinger / Tchaikovsky & Rachmaninoff: Orchestral Works (4-7)
––––––––––––––––––––––––––––––––––––––––

DR Peak RMS Duration Track
––––––––––––––––––––––––––––––––––––––––
DR14 -0.10 dB -19.87 dB 11:13 01/7-Piano Concerto No. 2 in C Minor, Op. 18: I. Moderato
DR18 -0.10 dB -25.65 dB 11:34 02/7-Piano Concerto No. 2 in C Minor, Op. 18: II. Adagio sostenuto
DR14 -0.10 dB -19.61 dB 12:14 03/7-Piano Concerto No. 2 in C Minor, Op. 18: III. Allegro scherzando
DR14 -0.10 dB -19.15 dB 18:06 04/7-Symphony No. 4 in F Minor, Op. 36, TH 27: I. Andante sostenuto - Moderato con anima
DR15 -5.66 dB -26.83 dB 9:57 05/7-Symphony No. 4 in F Minor, Op. 36, TH 27: II. Andantino in modo di canzona
DR16 -6.30 dB -28.91 dB 5:26 06/7-Symphony No. 4 in F Minor, Op. 36, TH 27: III. Scherzo. Pizzicato ostinato
DR13 -0.10 dB -18.01 dB 8:53 07/7-Symphony No. 4 in F Minor, Op. 36, TH 27: IV. Finale. Allegro con fuoco
––––––––––––––––––––––––––––––––––––––––

Number of tracks: 7
Official DR value: DR15

Samplerate: 96000 Hz
Channels: 2
Bits per sample: 24
Bitrate: 2584 kbps
Codec: FLAC
================================================================================



Thanks to the Original customer.