Tags
Language
Tags

Dan Zhu - Bright Sheng - Let Fly, Zodiac Tales & Suzhou Overture (2021) [Official Digital Download]

Posted By: pyatak
Dan Zhu - Bright Sheng - Let Fly, Zodiac Tales & Suzhou Overture (2021) [Official Digital Download]

Dan Zhu - Bright Sheng - Let Fly, Zodiac Tales & Suzhou Overture (2021) [Official Digital Download]
FLAC (tracks) 24-bit/44.1 kHz | Front Cover | Time - 67:36 minutes | 651 MB
Classical | Label: Naxos, Official Digital Download

Inspired by the image of a violin melody ‘flying off’, Chinese-American composer Bright Sheng’s virtuosic three-movement concerto "Let Fly" interweaves Chinese and Western classical elements. Vivid legends of astrological animals inform "Zodiac Tales", a tour de force concerto for orchestra. Reflecting the city of Suzhou’s ancient, continuous cultural heritage, traditional nostalgia fuses with contemporary rhythms in the exciting "Suzhou Overture".

TRACKLIST

1. Lucas Macias Navarro - I. Molto allegro
2. Lucas Macias Navarro - II. Menuetto
3. Lucas Macias Navarro - III. Andantino
4. Lucas Macias Navarro - IV. Menuetto. Tema con variazioni
5. Lucas Macias Navarro - V. Rondo. Allegro assai
6. Lucas Macias Navarro - VI. Marcia alla francese
7. Vicente Alberola - I. Adagio - Allegro con brio
8. Vicente Alberola - II. Adagio cantabile
9. Vicente Alberola - III. Tempo di minuetto
10. Vicente Alberola - IV. Tema. Andante von variazioni
11. Vicente Alberola - V. Scherzo. Allegro molto e vivace
12. Vicente Alberola - VI. Andante con moto alla marcia - Presto

foobar2000 1.6.2 / Dynamic Range Meter 1.1.1
log date: 2021-02-18 19:04:28

––––––––––––––––––––––––––––––––––––––––
Analyzed: Dan Zhu / Bright Sheng: Let Fly, Zodiac Tales & Suzhou Overture (1)
Shanghai Shimpony Orchestra / Bright Sheng: Let Fly, Zodiac Tales & Suzhou Overture (2-7)
Suzhou Symphony Orchestra / Bright Sheng: Let Fly, Zodiac Tales & Suzhou Overture (8)
––––––––––––––––––––––––––––––––––––––––

DR Peak RMS Duration Track
––––––––––––––––––––––––––––––––––––––––
DR17 -0.21 dB -23.35 dB 27:43 01-Let Fly
DR12 -1.08 dB -17.93 dB 5:14 02-I. The God of Rain
DR13 -0.32 dB -20.98 dB 3:15 03-II. Of Mice and Cats
DR13 -18.23 dB -36.46 dB 2:20 04-III. Three Lambs Under the Spring Sun
DR12 -0.41 dB -16.88 dB 4:33 05-IV. The Elephant-Eating Serpent
DR12 -5.18 dB -24.31 dB 9:22 06-V. The Tomb of the Soulful Dog
DR12 -0.63 dB -18.35 dB 5:37 07-VI. The Flying Horses
DR15 -0.25 dB -21.13 dB 9:44 08-Suzhou Overture
––––––––––––––––––––––––––––––––––––––––

Number of tracks: 8
Official DR value: DR13

Samplerate: 44100 Hz
Channels: 2
Bits per sample: 24
Bitrate: 1302 kbps
Codec: FLAC
================================================================================



Thanks to the Original customer.