Tags
Language
Tags

Dana Fuchs - Songs From The Road (2014) [Official Digital Download]

Posted By: SERTiL
Dana Fuchs - Songs From The Road (2014) [Official Digital Download]

Dana Fuchs - Songs From The Road (2014)
FLAC (tracks) 24-bit/48 kHz | Time - 77:25 minutes | 958 MB
Studio Master, Official Digital Download | Artwork: Digital Booklet

The road has led Dana Fuchs everywhere. But when it came to choosing a location for her version of Ruf Records’ now highly anticipated live double set, Songs From The Road, it had to be New York. The singer and the city have history. Almost two decades have passed since Dana left her home in rural Florida and beat a path to the Big Apple. Stepping onto the mean streets of the Lower East Side at age 19, she was an unknown singer with a voice and a dream, ready to slug it out on the city’s jam-circuit.

Since then, New York has been the backdrop to Dana’s well-documented rise. There were the early buzz-sets in the city’s late-night sweatboxes. The off-Broadway musical Love, Janis, which saw the multi-talented performer become the iconic Janis Joplin. The endless shows and sessions all across town. No wonder, then, that for Songs From The Road, the Highline Ballroom on West 16th Street was the perfect fit – and the singer was received like a local hero. As ever, the Songs From The Road concept isn’t about overdubs, Auto-Tune or opulent production, but the honest bottling of the two-way energy that only occurs when great artists go nose-to-nose with their fans. It’s hard to imagine a performer who deserves the treatment more than Dana: a vocalist who means every note, every night.

A live show by the Dana Fuchs Band is an assault on all the senses. As such, comprised in Songs From The Road’s two-disc pack, you’ll find an audio CD capturing the soul power of that classic set on March 14th, 2014, plus a DVD, directed by Kevin Mackall. Prowling the stage, pouring her heart into the microphone and owning every word of every song on the setlist, you won’t question the wisdom of the UK’s Classic Rock Magazine, who famously declared Dana’s once-in-a-generation voice as “juke-joint dirty and illicit, evoking Janis Joplin, Mick Jagger and a cigarette butt bobbing in a glass of bourbon…”

Tracklist:
01. Bliss Avenue
02. Handful Too Many
03. Livin' on Sunday
04. How Did Things Get This Way
05. So Hard to Move
06. Summersong
07. Set It on Fire
08. Sad Salvation
09. Tell Me I'm Not Drinking
10. Rodents in the Attic
11. Nothin' on My Mind
12. Vagabond Wind
13. Long Long Game
14. Keep on Walkin'
15. I've Been Loving You Too Long
16. Don't Let Me Down

foobar2000 1.3.7 / Dynamic Range Meter 1.1.1
log date: 2019-02-27 17:37:34

––––––––––––––––––––––––––––––––––––––––
Analyzed: Dana Fuchs / Songs From The Road
––––––––––––––––––––––––––––––––––––––––

DR Peak RMS Duration Track
––––––––––––––––––––––––––––––––––––––––
DR9 -0.06 dB -9.67 dB 3:04 01-Bliss Avenue
DR8 -0.05 dB -9.57 dB 5:47 02-Handful Too Many
DR8 -0.06 dB -9.30 dB 4:05 03-Livin' On Sunday
DR7 -0.27 dB -9.27 dB 4:24 04-How Did Things Get This Way
DR8 -0.75 dB -10.65 dB 7:07 05-So Hard To Move
DR8 -0.16 dB -9.63 dB 4:30 06-Summersong
DR8 -0.47 dB -9.68 dB 3:49 07-Set It On Fire
DR13 -0.53 dB -16.20 dB 4:58 08-Sad Salvation
DR13 -0.49 dB -15.86 dB 5:13 09-Tell Me I'm Not Drinking
DR9 -0.16 dB -10.64 dB 4:04 10-Rodents In The Attic
DR9 -0.46 dB -10.52 dB 3:48 11-Nothin' On My Mind
DR7 -0.05 dB -9.02 dB 5:36 12-Vagabond Wind
DR7 -0.49 dB -8.45 dB 4:55 13-Long Long Game
DR7 -0.05 dB -8.67 dB 5:12 14-Keep On Walkin'
DR7 -0.26 dB -9.16 dB 4:33 15-I've Been Loving You Too Long
DR6 -0.14 dB -7.38 dB 6:28 16-Don't Let Me Down
––––––––––––––––––––––––––––––––––––––––

Number of tracks: 16
Official DR value: DR8

Samplerate: 48000 Hz
Channels: 2
Bits per sample: 24
Bitrate: 1767 kbps
Codec: FLAC
================================================================================


Thanks to the Original customer.