Tags
Language
Tags

Dana Zemtsov - Silhouettes (2020) [Official Digital Download 24/192]

Posted By: pyatak
Dana Zemtsov - Silhouettes (2020) [Official Digital Download 24/192]

Dana Zemtsov - Silhouettes (2020) [Official Digital Download 24/192]
FLAC (tracks) 24-bit/192 kHz | Front Cover | Time - 51:25 minutes | 2,3 GB
Classical | Label: Channel Classics Records, Official Digital Download

World-class musicians Dana Zemtsov and Anna Fedorova joined forces when they discovered they have a mutual friend. ‘Do you know that feeling when coming to a new place as if the atmosphere you are in has been with you forever, recognizing it like an old friend? Our upbringing was similar, and filled with Guy de Maupassant, Gustave Flaubert, Victor Hugo, Alexandre Dumas, Jean de La Fontaine, Pierre Richard, Louis de Funès, Georges Brassens, Édith Piaf, Charles Trenet. This could be a logical explanation for us both experiencing this sense of familiarity every time we cross the border to France. Or maybe we have lived some of our previous lives in these surroundings that they seem so close to us?

This is by no means a story about France. Each piece in this album has its own story, its own thoughts and feelings. However, throughout it, if you listen with your eyes closed, you will occasionally sense the presence of a furtive silhouette ‘à la Française’. - Dana Zemtsov & Anna Fedorova (from liner notes

TRACKLIST

01. Dana Zemtsov - I. Impetuoso
02. Dana Zemtsov - II. Vivace
03. Dana Zemtsov - III. Adagio-Allegro
04. Dana Zemtsov - La Plus que Lente
05. Dana Zemtsov - I. Allemande
06. Dana Zemtsov - II. Branle
07. Dana Zemtsov - III. Pavane
08. Dana Zemtsov - IV. Tarantella
09. Dana Zemtsov - Clair de Lune
10. Dana Zemtsov - I. Entrée
11. Dana Zemtsov - II. Française
12. Dana Zemtsov - III. Air
13. Dana Zemtsov - IV. Final
14. Dana Zemtsov - Concert Piece for Viola and Piano
15. Dana Zemtsov - Beau Soir

foobar2000 1.3.16 / Dynamic Range Meter 1.1.1
log date: 2020-06-20 20:20:20

––––––––––––––––––––––––––––––––––––––––
Analyzed: Dana Zemtsov / Silhouettes
––––––––––––––––––––––––––––––––––––––––

DR Peak RMS Duration Track
––––––––––––––––––––––––––––––––––––––––
DR14 -2.30 dB -23.54 dB 8:53 01-I. Impetuoso
DR15 -5.34 dB -25.29 dB 4:45 02-II. Vivace
DR14 -2.55 dB -22.63 dB 11:10 03-III. Adagio-Allegro
DR14 -6.43 dB -28.18 dB 4:43 04-La Plus que Lente
DR15 -2.36 dB -23.52 dB 2:55 05-I. Allemande
DR14 -1.97 dB -21.60 dB 2:18 06-II. Branle
DR14 -9.71 dB -30.43 dB 4:55 07-III. Pavane
DR13 -2.02 dB -20.73 dB 2:39 08-IV. Tarantella
DR13 -7.61 dB -27.66 dB 4:32 09-Clair de Lune
DR11 -10.82 dB -25.92 dB 3:11 10-I. Entrée
DR14 -3.09 dB -21.15 dB 2:29 11-II. Française
DR13 -8.44 dB -27.36 dB 4:28 12-III. Air
DR15 -3.32 dB -22.06 dB 2:52 13-IV. Final
DR16 -3.18 dB -24.42 dB 9:23 14-Concert Piece for Viola and Piano
DR12 -6.20 dB -27.25 dB 2:27 15-Beau Soir
––––––––––––––––––––––––––––––––––––––––

Number of tracks: 15
Official DR value: DR14

Samplerate: 192000 Hz
Channels: 2
Bits per sample: 24
Bitrate: 4464 kbps
Codec: FLAC
================================================================================



Thanks to the Original customer.