Dario Müller - Paris Boulevard (2020) [Official Digital Download 24/96]

Posted By: pyatak
Dario Müller - Paris Boulevard (2020) [Official Digital Download 24/96]

Dario Müller - Paris Boulevard (2020) [Official Digital Download 24/96]
FLAC (tracks) 24-bit/96 kHz | Front Cover | Time - 56:17 minutes | 942 MB
Classical | Label: Dynamic, Official Digital Download

This collection of piano works is a journey through the music that represents the years spanning the end of the 1800s and the first half of the 1900s. It is a varied itinerary, marked by that typically Parisian ésprit nouveau that captured the most diverse influences: popular music, jazz, exoticism, quotes from popular tradition, songs, circus exhibitions. At that time in fact the divide between cultured and light music came down as new forms of entertainment blossomed, different from those proposed by the great institutions. Cradles of this change were the artistic cabarets, the cafés-concerts, the music halls, the tabarins, but also bistrots, taverns, bookshops, and all the places where intellectuals and artists met. This release offers an historical playlist imbued with the mood of that time, alternating the energy and joie de vivre with more melancholic moods. For the centrality of his figure and the originality of his works, the fruit of a constant process of renewal, Erik Satie is present here with six works which represent several stages in his amazing creative parabola. Dario Müller has performed in concert for important institutions and has collaborated with Dynamic since 1984.

TRACKLIST

01. Dario Müller - 3 Gymnopédies: No. 2, Lent et triste
02. Dario Müller - Premières valses: No. 5, Pas vite, simplement
03. Dario Müller - Papillon
04. Dario Müller - Je te veux (Version for Piano)
05. Dario Müller - Les forains: VI. Galop (Arr. for Piano)
06. Dario Müller - Where Is Your Heart (From "Moulin Rouge") [Arr. for Piano]
07. Dario Müller - Le piccadilly
08. Dario Müller - Le petit nègre, L. 114
09. Dario Müller - L'enfant et les sortilèges, M. 71: Five O'Clock Fox-Trot (Arr. for Piano)
10. Dario Müller - Descriptions automatiques: I. Sur un vaisseau
11. Dario Müller - Descriptions automatiques: II. Sur une lanterne
12. Dario Müller - Descriptions automatiques: III. Sur un casque
13. Dario Müller - Valse, FP 53
14. Dario Müller - Cocktail's Dance
15. Dario Müller - Le piège de Méduse
16. Dario Müller - Valse lente
17. Dario Müller - Le grisbi (From "Touchez pas au grisbi") [Arr. for Piano]
18. Dario Müller - Rag-Time Parade
19. Dario Müller - J'ai deux amours (Arr. for Piano)
20. Dario Müller - 8 Novelettes: No. 6, Blues. Andante cantabile
21. Dario Müller - Tango des fratellini, Op. 58c
22. Dario Müller - Tango-habanera (From "Marie Galante") [Arr. for Piano]
23. Dario Müller - Les feuilles mortes (Arr. for Piano)

foobar2000 1.6.2 / Dynamic Range Meter 1.1.1
log date: 2020-11-22 08:09:44

––––––––––––––––––––––––––––––––––––––––
Analyzed: Dario Müller / Paris Boulevard
––––––––––––––––––––––––––––––––––––––––

DR Peak RMS Duration Track
––––––––––––––––––––––––––––––––––––––––
DR14 -4.40 dB -25.35 dB 3:06 01-3 Gymnopédies: No. 2, Lent et triste
DR13 -5.90 dB -25.06 dB 2:24 02-Premières valses: No. 5, Pas vite, simplement
DR14 -0.87 dB -21.23 dB 2:58 03-Papillon
DR12 -4.35 dB -21.09 dB 4:27 04-Je te veux (Version for Piano)
DR14 -0.37 dB -17.40 dB 1:22 05-Les forains: VI. Galop (Arr. for Piano)
DR11 -6.68 dB -21.90 dB 1:40 06-Where Is Your Heart (From "Moulin Rouge") [Arr. for Piano]
DR11 -2.19 dB -16.56 dB 1:47 07-Le piccadilly
DR14 -0.37 dB -19.01 dB 1:57 08-Le petit nègre, L. 114
DR13 -0.37 dB -19.46 dB 2:26 09-L'enfant et les sortilèges, M. 71: Five O'Clock Fox-Trot (Arr. for Piano)
DR12 -8.40 dB -26.05 dB 1:52 10-Descriptions automatiques: I. Sur un vaisseau
DR9 -3.33 dB -18.80 dB 1:42 11-Descriptions automatiques: II. Sur une lanterne
DR8 -2.65 dB -13.83 dB 0:56 12-Descriptions automatiques: III. Sur un casque
DR11 -0.37 dB -17.44 dB 2:17 13-Valse, FP 53
DR14 -0.37 dB -17.56 dB 2:13 14-Cocktail's Dance
DR9 -2.15 dB -15.92 dB 3:44 15-Le piège de Méduse
DR14 -3.78 dB -22.19 dB 2:18 16-Valse lente
DR13 -1.10 dB -19.74 dB 2:04 17-Le grisbi (From "Touchez pas au grisbi") [Arr. for Piano]
DR14 -0.37 dB -18.32 dB 2:37 18-Rag-Time Parade
DR11 -5.11 dB -21.07 dB 2:06 19-J'ai deux amours (Arr. for Piano)
DR12 -3.75 dB -21.91 dB 3:36 20-8 Novelettes: No. 6, Blues. Andante cantabile
DR11 -0.37 dB -18.85 dB 2:10 21-Tango des fratellini, Op. 58c
DR14 -1.32 dB -21.02 dB 3:17 22-Tango-habanera (From "Marie Galante") [Arr. for Piano]
DR13 -4.22 dB -22.04 dB 3:20 23-Les feuilles mortes (Arr. for Piano)
––––––––––––––––––––––––––––––––––––––––

Number of tracks: 23
Official DR value: DR12

Samplerate: 96000 Hz
Channels: 2
Bits per sample: 24
Bitrate: 2320 kbps
Codec: FLAC
================================================================================



Thanks to the Original customer.