Tags
Language
Tags

Dave Van Ronk - Mayor Of MacDougal Street (2005/2021) [Official Digital Download 24/96]

Posted By: pyatak
Dave Van Ronk - Mayor Of MacDougal Street (2005/2021) [Official Digital Download 24/96]

Dave Van Ronk - Mayor Of MacDougal Street (2005/2021) [Official Digital Download 24/96]
FLAC (tracks) 24-bit/96 kHz | Front Cover | Time - 01:43:42 minutes | 1,73 GB
Folk | Label: RevOla, Official Digital Download

The Mayor of MacDougal Street: Rarities 1957-1969 is a compilation album by American folksinger Dave Van Ronk, released in 2005.

The Mayor of MacDougal Street contains previously unreleased songs and is presented in chronological order. It contains both solo material and songs recorded with session musicians and bands that either backed Van Ronk or he was a member of. It was included with the memoir of the same title before being released as a separate CD. The title refers to MacDougal Street in Greenwich Village.

Writing for Allmusic, critic Steve Leggett wrote of the album "Van Ronk was never a part of the tradition-at-all-costs wing of the folk movement, and he readily embraced the young songwriters of the day, frequently covering their songs, as evidenced by the hushed, nuanced version of Leonard Cohen's "Bird on the Wire" that is included here. A skilled raconteur, Van Ronk had the timing of a jazz hornman, and that timing and his wide-ranging musical interests are everywhere apparent on this lovingly assembled look behind the curtains."

TRACKLIST

01. Dave Van Ronk - Hootchie Kootchie Man (Remastered)
02. Dave Van Ronk - Reckless Blues (Remastered)
03. Dave Van Ronk - Trouble in Mind (Remastered)
04. Dave Van Ronk - Oh Lord, Search My Heart (Remastered)
05. Dave Van Ronk - God Bless The Child (Remastered)
06. Dave Van Ronk - Losers (Remastered)
07. Dave Van Ronk - Another Time and Place (Remastered)
08. Dave Van Ronk - Garden State Stomp (Remastered)
09. Dave Van Ronk - Motherless Children (Remastered)
10. Dave Van Ronk - Don't You Leave Me Here (I'm Alabama Bound) (Remastered)
11. Dave Van Ronk - Spike Driver Blues (Remastered)
12. Dave Van Ronk - Down South Blues (Remastered)
13. Dave Van Ronk - St. James Infirmary (Gambler's Blues) (Remastered)
14. Dave Van Ronk - Ace In The Hole (Remastered)
15. Dave Van Ronk - Going Down Slow (Remastered)
16. Dave Van Ronk - Buckets Of Rain (Remastered)
17. Dave Van Ronk - Jelly Jelly (Remastered)
18. Dave Van Ronk - Sometime (Whatcha Gonna Do?) (Remastered)
19. Dave Van Ronk - Hesitation Blues (Remastered)
20. Dave Van Ronk - In The Pines (Remastered)
21. Dave Van Ronk - Oh, What A Beautiful City (Remastered)
22. Dave Van Ronk - Mean Old Frisco (Remastered)
23. Dave Van Ronk - Stackalee (Remastered)
24. Dave Van Ronk - How Long? (Remastered)
25. Dave Van Ronk - Aint No Grave Can Hold My Body Down (Remastered)
26. Dave Van Ronk - House Of The Rising Sun (Remastered)
27. Dave Van Ronk - Please See That My Grave is Kept Clean (Remastered)
28. Dave Van Ronk - Had More Money (Remastered)
29. Dave Van Ronk - If You Leave Me, Pretty Mama (Remastered)

foobar2000 1.6.2 / Dynamic Range Meter 1.1.1
log date: 2021-09-25 11:23:22

––––––––––––––––––––––––––––––––––––––––
Analyzed: Dave Van Ronk / Mayor Of MacDougal Street
––––––––––––––––––––––––––––––––––––––––

DR Peak RMS Duration Track
––––––––––––––––––––––––––––––––––––––––
DR12 0.00 dB -15.03 dB 3:16 01-Hootchie Kootchie Man (Remastered)
DR9 -0.68 dB -13.15 dB 2:31 02-Reckless Blues (Remastered)
DR10 0.00 dB -14.81 dB 2:26 03-Trouble in Mind (Remastered)
DR8 -1.15 dB -12.38 dB 3:57 04-Oh Lord, Search My Heart (Remastered)
DR14 0.00 dB -19.16 dB 3:19 05-God Bless The Child (Remastered)
DR12 0.00 dB -15.59 dB 3:19 06-Losers (Remastered)
DR14 0.00 dB -18.46 dB 4:31 07-Another Time and Place (Remastered)
DR12 0.00 dB -17.23 dB 2:53 08-Garden State Stomp (Remastered)
DR14 0.00 dB -18.57 dB 3:14 09-Motherless Children (Remastered)
DR17 0.00 dB -21.53 dB 4:43 10-Don't You Leave Me Here (I'm Alabama Bound) (Remastered)
DR15 -0.63 dB -21.40 dB 6:51 11-Spike Driver Blues (Remastered)
DR12 -1.53 dB -18.81 dB 5:13 12-Down South Blues (Remastered)
DR10 -0.91 dB -16.25 dB 4:26 13-St. James Infirmary (Gambler's Blues) (Remastered)
DR11 -4.39 dB -18.15 dB 4:23 14-Ace In The Hole (Remastered)
DR12 -2.66 dB -17.16 dB 3:30 15-Going Down Slow (Remastered)
DR11 -2.08 dB -16.46 dB 3:55 16-Buckets Of Rain (Remastered)
DR12 -2.72 dB -18.84 dB 3:03 17-Jelly Jelly (Remastered)
DR12 -2.79 dB -16.87 dB 2:38 18-Sometime (Whatcha Gonna Do?) (Remastered)
DR14 0.00 dB -17.37 dB 2:36 19-Hesitation Blues (Remastered)
DR13 0.00 dB -17.81 dB 3:10 20-In The Pines (Remastered)
DR12 -0.01 dB -15.23 dB 3:17 21-Oh, What A Beautiful City (Remastered)
DR8 -5.42 dB -18.04 dB 2:58 22-Mean Old Frisco (Remastered)
DR7 -5.51 dB -15.94 dB 2:46 23-Stackalee (Remastered)
DR12 0.00 dB -18.08 dB 3:53 24-How Long? (Remastered)
DR9 -0.44 dB -12.59 dB 4:53 25-Aint No Grave Can Hold My Body Down (Remastered)
DR8 -1.73 dB -14.84 dB 6:10 26-House Of The Rising Sun (Remastered)
DR11 0.00 dB -17.25 dB 2:59 27-Please See That My Grave is Kept Clean (Remastered)
DR7 -5.06 dB -14.15 dB 3:09 28-Had More Money (Remastered)
DR14 -0.35 dB -19.48 dB 3:09 29-If You Leave Me, Pretty Mama (Remastered)
––––––––––––––––––––––––––––––––––––––––

Number of tracks: 29
Official DR value: DR11

Samplerate: 96000 Hz
Channels: 2
Bits per sample: 24
Bitrate: 2235 kbps
Codec: FLAC
================================================================================



Thanks to the Original customer.