Tags
Language
Tags
June 2024
Su Mo Tu We Th Fr Sa
26 27 28 29 30 31 1
2 3 4 5 6 7 8
9 10 11 12 13 14 15
16 17 18 19 20 21 22
23 24 25 26 27 28 29
30 1 2 3 4 5 6

David Ponsford - French Organ Music from the Golden Age, Vol. 8 (2024) [Official Digital Download]

Posted By: ciklon5
David Ponsford - French Organ Music from the Golden Age, Vol. 8  (2024) [Official Digital Download]

David Ponsford - French Organ Music from the Golden Age, Vol. 8 (2024) [Official Digital Download]
FLAC (tracks), Lossless [24bit-44kHz] | 1:18:10 | 723 Mb
Genre: Classical

After some years as Assistant Organist at Wells Cathedral, and as Conductor of Cheltenham Bach Choir, he studied with the international Bach scholar Peter Williams, being awarded a PhD in French Baroque organ music. For 17 years he was Associate Lecturer at Cardiff University, where he directed courses in Performance Practice and Notation & Editing. During his time at Cardiff, he was conductor of the University Chamber Orchestra and the University Choir. He has also taught organ and harpsichord at Bristol University, Bath Spa University, Royal Welsh College of Music and Drama, Royal Birmingham Conservatoire, and Wells Cathedral School.

Track List:
[02:03] 01. David Ponsford - Kyrie: Grand plein jeu
[01:34] 02. David Ponsford - Fugue
[03:09] 03. David Ponsford - Cromhorne en taille
[02:15] 04. David Ponsford - Trio à deux dessus
[02:02] 05. David Ponsford - Dialogue à deux choeurs
[01:28] 06. David Ponsford - Gloria: Prélude à deux choeurs
[00:57] 07. David Ponsford - Concert pour les flûtes
[01:41] 08. David Ponsford - Duo
[02:03] 09. David Ponsford - Récit tendre pour le nazard
[01:11] 10. David Ponsford - Dialogue de voix humaine
[01:33] 11. David Ponsford - Basse de trompette ou de cromhorne
[02:23] 12. David Ponsford - Dessus de tierce par accords
[02:53] 13. David Ponsford - Tierce en taille
[01:18] 14. David Ponsford - Dialogue à deux choeurs II
[00:58] 15. David Ponsford - Graduel: Trio
[06:55] 16. David Ponsford - Offerte: Grand dialogue à trois choeurs
[01:08] 17. David Ponsford - Premier Sanctus: Plein jeu
[01:03] 18. David Ponsford - Second Sanctus: Duo
[04:03] 19. David Ponsford - Élévation: Cromhorne en taille
[01:37] 20. David Ponsford - Plein jeu à deux Choeurs pour le premier Agnus Dei
[01:54] 21. David Ponsford - Dialogue en fugue pour le second Agnus Dei
[00:40] 22. David Ponsford - Deo Gratias: Grand plein jeu (Fin de la Messe)
[02:00] 23. David Ponsford - Graduel: Basse de trompette ou de cromhorne
[03:30] 24. David Ponsford - Élévation: Fond d'orgue
[04:36] 25. David Ponsford - Pièces d'orgue: No. 1, Offertoire
[03:04] 26. David Ponsford - Pièces d'orgue: No. 2, Tierce en taille
[01:27] 27. David Ponsford - Magnificat: I. Plein jeu
[01:11] 28. David Ponsford - Magnificat: II. Duo
[01:40] 29. David Ponsford - Magnificat: III. Trio
[01:36] 30. David Ponsford - Magnificat: IV. Basse de trompette
[01:36] 31. David Ponsford - Magnificat: V. Flûtes
[01:56] 32. David Ponsford - Magnificat: VI. Dialogue
[03:35] 33. David Ponsford - Noël: Quand le sauveur Jesus Christ, ou Bon Joseph écoutez moi
[06:54] 34. David Ponsford - Ofertoire pour le jour de Pâques: O filii et filiae

foobar2000 1.6.10 / Dynamic Range Meter 1.1.1
log date: 2024-01-04 15:41:31

––––––––––––––––––––––––––––––––––––––––
Analyzed: David Ponsford / French Organ Music from the Golden Age, Vol. 8: Gaspard Corrette & Jean-François Dandrieu
––––––––––––––––––––––––––––––––––––––––

DR Peak RMS Duration Track
––––––––––––––––––––––––––––––––––––––––
DR10 -3.76 dB -15.84 dB 2:03 01-Kyrie: Grand plein jeu
DR10 -4.35 dB -18.11 dB 1:34 02-Fugue
DR8 -6.32 dB -17.17 dB 3:10 03-Cromhorne en taille
DR10 -9.85 dB -22.08 dB 2:16 04-Trio à deux dessus
DR10 -2.14 dB -16.44 dB 2:02 05-Dialogue à deux choeurs
DR10 -2.28 dB -15.75 dB 1:29 06-Gloria: Prélude à deux choeurs
DR9 -14.40 dB -25.77 dB 0:57 07-Concert pour les flûtes
DR10 -10.95 dB -22.72 dB 1:42 08-Duo
DR9 -16.28 dB -27.55 dB 2:03 09-Récit tendre pour le nazard
DR8 -15.02 dB -26.91 dB 1:12 10-Dialogue de voix humaine
DR11 -9.66 dB -23.71 dB 1:34 11-Basse de trompette ou de cromhorne
DR9 -8.26 dB -19.73 dB 2:23 12-Dessus de tierce par accords
DR4 0.00 dB -15.93 dB 2:54 13-Tierce en taille
DR10 -0.88 dB -15.66 dB 1:19 14-Dialogue à deux choeurs II
DR9 -11.96 dB -23.16 dB 0:58 15-Graduel: Trio
DR11 -0.46 dB -15.94 dB 6:56 16-Offerte: Grand dialogue à trois choeurs
DR9 -4.28 dB -15.67 dB 1:08 17-Premier Sanctus: Plein jeu
DR10 -10.30 dB -22.86 dB 1:04 18-Second Sanctus: Duo
DR9 -5.40 dB -17.99 dB 4:03 19-Élévation: Cromhorne en taille
DR10 -3.36 dB -16.56 dB 1:38 20-Plein jeu à deux Choeurs pour le premier Agnus Dei
DR11 -1.30 dB -16.72 dB 1:54 21-Dialogue en fugue pour le second Agnus Dei
DR9 -3.34 dB -16.00 dB 0:41 22-Deo Gratias: Grand plein jeu (Fin de la Messe)
DR10 -11.01 dB -23.00 dB 2:01 23-Graduel: Basse de trompette ou de cromhorne
DR10 -2.01 dB -16.32 dB 3:30 24-Élévation: Fond d'orgue
DR11 -1.74 dB -16.45 dB 4:36 25-Pièces d'orgue: No. 1, Offertoire
DR9 -7.03 dB -18.26 dB 3:04 26-Pièces d'orgue: No. 2, Tierce en taille
DR10 -3.92 dB -15.56 dB 1:28 27-Magnificat: I. Plein jeu
DR10 -12.31 dB -24.64 dB 1:12 28-Magnificat: II. Duo
DR10 -6.83 dB -20.30 dB 1:40 29-Magnificat: III. Trio
DR9 -8.47 dB -21.60 dB 1:37 30-Magnificat: IV. Basse de trompette
DR9 -14.16 dB -27.06 dB 1:36 31-Magnificat: V. Flûtes
DR11 -2.86 dB -17.58 dB 1:57 32-Magnificat: VI. Dialogue
DR10 -10.53 dB -23.60 dB 3:36 33-Noël: Quand le sauveur Jesus Christ, ou Bon Joseph écoutez moi
DR12 -2.68 dB -19.55 dB 6:55 34-Ofertoire pour le jour de Pâques: O filii et filiae
––––––––––––––––––––––––––––––––––––––––

Number of tracks: 34
Official DR value: DR10

Samplerate: 44100 Hz
Channels: 2
Bits per sample: 24
Bitrate: 1322 kbps
Codec: FLAC
================================================================================