Flemish Radio Choir, Brussels Philharmonic, Hervé Niquet, Les Siècles & François-Xavier Roth - Félicien David (2017) [24/48]

Posted By: SERTiL
Flemish Radio Choir, Brussels Philharmonic, Hervé Niquet, Les Siècles & François-Xavier Roth - Félicien David (2017) [24/48]

Flemish Radio Choir, Brussels Philharmonic, Hervé Niquet, Les Siècles & François-Xavier Roth - David: Christophe Colomb & Musique de chambre, symphonique et sacrée (Portraits, Vol. 4) (2017)
FLAC (tracks) 24-bit/48 kHz | Time - 233:53 minutes | 2.19 GB
Studio Master, Official Digital Download | Artwork: Digital booklet

Each volume in the 'Portraits' series is devoted to a French composer who has now largely been forgotten. With performances by many talented artists, it presents a panorama of his works. The 'Portrait' of Félicien David aims to complement the discography already available with world premiere recordings of the composer's works. Among these are a glimpse of his orchestral output, with the Symphony no. 3 and the Overture to his opéra-comique La Perle du Brésil, the work that really launched David on his operatic career. But it is above all Christophe Colomb (1847) that deserves mention, for this ode-symphonie with speaker was an ambitious follow-up to the success of Le Désert, performed at the Théâtre-Italian some years earlier. Nevertheless, this anthology does not forget that Félicien David was also a figure of the salons, admired for his intimate music and especially his songs. The programme therefore offers a chance to discover excerpts from the Mélodies orientates for solo piano, a selection of romances in the style of the 1840s, and the very rare early motets for chorus in varied scorings. The culmination of this Portrait is the restoration of Le Jugement dernier, which was intended as the concluding apotheosis of the opera Herculanum, but was finally deleted and has never been published until today.

TRACKLIST

Félicien David (1810 - 1876)

Christophe Colomb, Acte I "Le départ"
1 Introduction - Symphonie 01:46
2 Récit "Océan inconnu, ténébreuse Atlantique" 01:20
3 Récit "Oui, Colomb vous entend, mystérieux génies" 01:11
4 Air "La brise qui se lève" 02:38
5 Acte "Amis fidèles" 02:52
6 Chœur "D'un héros protégé par les cieux" 01:03
7 "Les adieux" - Récit "Tandis que les marins" 00:44
8 Duo "Adieu, ma belle" 05:50
9 Récit "Le bronze du navire, au bronze du rempart" 01:13
10 Chœur "Dieu de bonté, Dieu tutélaire" 01:48
11 Chœur "Prions, prions" 02:13
12 Récit et Chœur "Tandis qu'aux bords des mers" 01:23

Christophe Colomb, Acte II "Une nuit des tropiques"
13 Introduction et Récit "L'immensité des mers" 01:11
14 Symphonie 03:18
15 Air "La mer est ma patrie" 02:14
16 Chœur "Ah !" 03:12
17 Chœur "Salut, mystérieux génies" 01:37
18 "Le quart" - Rêverie, Air avec chœur "O mer" 05:24
19 Chœur "Oh ! Qu'il fait bon" 02:47
20 "Ouragan" - Récit "Et le dernier refrain de la chanson" 05:08

Christophe Colomb, Acte III "La révolte"
21 "Le calme plat" - Récit "Un calme désolant" 02:37
22 Chœur "Levons-nous, réveillons nos âmes" 01:47
23 Air avec chœur "Ainsi le moindre obstacle" 03:13
24 Air avec chœur "Voyez ! déjà la mer respire" 03:51

Christophe Colomb, Acte IV "Le nouveau monde"
25 Introduction et Récit "Enfin le matelot" 00:48
26 Symphonie "Terre ! terre ! ô transport !" 04:07
27 Danse de sauvages, air de ballet 02:16
28 Chœur "Parés de beaux plumages" 03:09
29 "Élégie" - Air "Sur l'arbre solitaire" 02:54
30 "L'arrivée" - Symphonie, Récit "Le voilà, ce rivage" 01:54
31 Chœur "À toi, chef immortel" 03:03

La perle du Brésil
32 Ouverture 11:03
33 Le jugement dernier 13:59

Symphonie No. 3 en Mi Bémol Majeur
34 Moderato 10:50
35 Andante con moto 05:16
36 Scherzo 07:29
37 Finale 06:03

Six motets
38 Angelis suis 02:44
39 Sub tuum 03:13
40 O salutaris 05:01
41 Pie Jesu 03:10
42 Omnes gentes 04:07
43 Coeli enarrant 07:22

Mélodies
44 22. Le ramier 04:55
45 23. Éoline 04:43
46 21. Cri de charité 05:49
47 17. Tristesse de l'odalisque 03:42
48 11. L'Égyptienne 04:09
49 25. Le jour des morts 09:43
50 24. Le Rhin allemand 03:39

Trio No. 1 en Mi Bémol Majeur
51 Allegro moderato 07:26
52 Le jugement dernier 08:18
53 Trio No. 1 en Mi Bémol Majeur: Final. Allegretto 09:21
54 Le soir 02:45

Les brises d'Orient
55 Fantasia harabi 01:43
56 Prière 02:28
57 Vieux Caire 01:30
58 Doux souvenir 01:43
59 Allegretto agitato 03:01

PERSONNEL
Flemish Radio Choir
Brussels Philharmonic
Hervé Niquet, conductor
Les Siècles
François-Xavier Roth, conductor

foobar2000 1.3.7 / Dynamic Range Meter 1.1.1
log date: 2017-08-28 13:59:01

––––––––––––––––––––––––––––––––––––––––
Analyzed: Brussels Philharmonic, Flemish Radio Choir, Hervé Niquet / David: Christophe Colomb & Musique de chambre, symphonique et sacrée (Portraits, Vol. 4) (1)
Brussels Philharmonic, Hervé Niquet / David: Christophe Colomb & Musique de chambre, symphonique et sacrée (Portraits, Vol. 4) (2-6)
Chantal Santon-Jeffery, Julien Behr, Les Siècles, François-Xavier Roth / David: Christophe Colomb & Musique de chambre, symphonique et sacrée (Portraits, Vol. 4) (7)
Duo Contraste, Cyrille Dubois / David: Christophe Colomb & Musique de chambre, symphonique et sacrée (Portraits, Vol. 4) (8-14)
Flemish Radio Choir, Les Siècles, François-Xavier Roth / David: Christophe Colomb & Musique de chambre, symphonique et sacrée (Portraits, Vol. 4) (15)
François Saint-Yves, Flemish Radio Choir, Hervé Niquet / David: Christophe Colomb & Musique de chambre, symphonique et sacrée (Portraits, Vol. 4) (16-21)
Hervé Niquet, Flemish Radio Choir, Les Siècles, François-Xavier Roth / David: Christophe Colomb & Musique de chambre, symphonique et sacrée (Portraits, Vol. 4) (22-29)
Hervé Niquet, Flemish Radio Choirs, Les Siècles, François-Xavier Roth / David: Christophe Colomb & Musique de chambre, symphonique et sacrée (Portraits, Vol. 4) (30)
Jean-Marie Winling, Hervé Niquet, Flemish Radio Choir, Les Siècles, François-Xavier Roth / David: Christophe Colomb & Musique de chambre, symphonique et sacrée (Portraits, Vol. 4) (31-32)
Jean-Marie Winling, Les Siècles, François-Xavier Roth / David: Christophe Colomb & Musique de chambre, symphonique et sacrée (Portraits, Vol. 4) (33-38)
Jonas Vitaud / David: Christophe Colomb & Musique de chambre, symphonique et sacrée (Portraits, Vol. 4) (39-44)
Josef Wagner, Hervé Niquet, Flemish Radio Choir, Les Siècles, François-Xavier Roth / David: Christophe Colomb & Musique de chambre, symphonique et sacrée (Portraits, Vol. 4) (45-47)
Josef Wagner, Les Siècles, François-Xavier Roth / David: Christophe Colomb & Musique de chambre, symphonique et sacrée (Portraits, Vol. 4) (48-50)
Julien Behr, Hervé Niquet, Flemish Radio Choir, Les Siècles, François-Xavier Roth / David: Christophe Colomb & Musique de chambre, symphonique et sacrée (Portraits, Vol. 4) (51)
Les Siècles, François-Xavier Roth / David: Christophe Colomb & Musique de chambre, symphonique et sacrée (Portraits, Vol. 4) (52-56)
Pascal Monlong, Pauline Buet, David Violi / David: Christophe Colomb & Musique de chambre, symphonique et sacrée (Portraits, Vol. 4) (57-59)
––––––––––––––––––––––––––––––––––––––––

DR Peak RMS Duration Track
––––––––––––––––––––––––––––––––––––––––
DR12 0.00 dB -18.09 dB 13:59 02-Le jugement dernier
DR16 -0.12 dB -21.73 dB 11:03 01-La perle du Brésil: Ouverture
DR15 0.00 dB -21.53 dB 10:50 03-Symphonie No. 3 en Mi Bémol Majeur: Moderato
DR14 -5.18 dB -25.17 dB 5:17 04-Symphonie No. 3 en Mi Bémol Majeur: Andante con moto
DR15 -0.01 dB -21.50 dB 7:29 05-Symphonie No. 3 en Mi Bémol Majeur: Scherzo
DR14 -2.09 dB -21.86 dB 6:04 06-Symphonie No. 3 en Mi Bémol Majeur: Finale
DR17 -3.01 dB -25.69 dB 5:50 08-Christophe Colomb, Acte I "Le départ": Duo "Adieu, ma belle"
DR14 -5.71 dB -27.41 dB 4:55 01-Mélodies: 22. Le ramier
DR14 -6.36 dB -26.29 dB 4:43 02-Mélodies: 23. Éoline
DR14 -0.02 dB -21.30 dB 5:49 03-Mélodies: 21. Cri de charité
DR13 -7.78 dB -27.87 dB 3:42 04-Mélodies: 17. Tristesse de l'odalisque
DR14 -0.64 dB -20.98 dB 4:09 05-Mélodies: 11. L'Égyptienne
DR16 -5.63 dB -27.32 dB 9:43 06-Mélodies: 25. Le jour des morts
DR13 -0.07 dB -17.57 dB 3:45 07-Mélodies: 24. Le Rhin allemand
DR13 -5.00 dB -24.58 dB 4:07 26-Christophe Colomb, Acte IV "Le nouveau monde": Symphonie "Terre ! terre ! ô transport !"
DR13 -1.98 dB -19.29 dB 2:45 07-Six motets: Angelis suis
DR14 -3.11 dB -23.96 dB 3:13 08-Six motets: Sub tuum
DR16 -3.60 dB -27.45 dB 5:01 09-Six motets: O salutaris
DR12 -2.33 dB -20.59 dB 3:11 10-Six motets: Pie Jesu
DR13 -4.90 dB -21.75 dB 4:08 11-Six motets: Omnes gentes
DR14 -3.03 dB -21.74 dB 7:23 12-Six motets: Coeli enarrant
DR13 -3.01 dB -20.79 dB 1:03 06-Christophe Colomb, Acte I "Le départ": Chœur "D'un héros protégé par les cieux"
DR13 -4.58 dB -24.79 dB 1:49 10-Christophe Colomb, Acte I "Le départ": Chœur "Dieu de bonté, Dieu tutélaire"
DR14 -3.83 dB -23.57 dB 2:14 11-Christophe Colomb, Acte I "Le départ": Chœur "Prions, prions"
DR14 -6.61 dB -27.83 dB 3:13 16-Christophe Colomb, Acte II "Une nuit des tropiques": Chœur "Ah !"
DR13 -8.99 dB -27.10 dB 1:37 17-Christophe Colomb, Acte II "Une nuit des tropiques": Chœur "Salut, mystérieux génies"
DR13 -3.01 dB -20.83 dB 2:47 19-Christophe Colomb, Acte II "Une nuit des tropiques": Chœur "Oh ! Qu'il fait bon"
DR13 -3.00 dB -22.17 dB 1:48 22-Christophe Colomb, Acte III "La révolte": Chœur "Levons-nous, réveillons nos âmes"
DR12 -3.01 dB -18.75 dB 3:04 31-Christophe Colomb, Acte IV "Le nouveau monde": Chœur "À toi, chef immortel"
DR13 -3.01 dB -21.28 dB 3:10 28-Christophe Colomb, Acte IV "Le nouveau monde": Chœur "Parés de beaux plumages"
DR12 -3.00 dB -23.37 dB 1:23 12-Christophe Colomb, Acte I "Le départ": Récit et Chœur "Tandis qu'aux bords des mers"
DR13 -3.00 dB -21.60 dB 5:09 20-Christophe Colomb, Acte II "Une nuit des tropiques": "Ouragan"-Récit "Et le dernier refrain de la chanson"
DR16 -8.60 dB -29.67 dB 1:20 02-Christophe Colomb, Acte I "Le départ": Récit "Océan inconnu, ténébreuse Atlantique"
DR12 -5.76 dB -25.25 dB 0:45 07-Christophe Colomb, Acte I "Le départ": "Les adieux"-Récit "Tandis que les marins"
DR13 -4.40 dB -23.49 dB 1:14 09-Christophe Colomb, Acte I "Le départ": Récit "Le bronze du navire, au bronze du rempart"
DR16 -14.96 dB -36.67 dB 1:12 13-Christophe Colomb, Acte II "Une nuit des tropiques": Introduction et Récit "L'immensité des mers"
DR13 -10.11 dB -30.16 dB 2:38 21-Christophe Colomb, Acte III "La révolte": "Le calme plat"-Récit "Un calme désolant"
DR14 -13.76 dB -32.75 dB 0:49 25-Christophe Colomb, Acte IV "Le nouveau monde": Introduction et Récit "Enfin le matelot"
DR12 -4.00 dB -21.67 dB 2:45 11-Le soir
DR12 -0.99 dB -19.08 dB 1:43 12-Les brises d'Orient: Fantasia harabi
DR14 -5.80 dB -24.18 dB 2:28 13-Les brises d'Orient: Prière
DR13 -1.35 dB -18.25 dB 1:30 14-Les brises d'Orient: Vieux Caire
DR12 -5.82 dB -21.33 dB 1:43 15-Doux souvenir
DR13 -0.02 dB -17.48 dB 2:59 16-Allegretto agitato
DR13 -3.37 dB -21.62 dB 2:52 05-Christophe Colomb, Acte I "Le départ": Acte "Amis fidèles"
DR14 -3.23 dB -22.23 dB 3:13 23-Christophe Colomb, Acte III "La révolte": Air avec chœur "Ainsi le moindre obstacle"
DR13 -3.00 dB -21.78 dB 3:51 24-Christophe Colomb, Acte III "La révolte": Air avec chœur "Voyez ! déjà la mer respire"
DR14 -5.35 dB -24.54 dB 1:12 03-Christophe Colomb, Acte I "Le départ": Récit "Oui, Colomb vous entend, mystérieux génies"
DR13 -5.80 dB -24.26 dB 2:38 04-Christophe Colomb, Acte I "Le départ": Air "La brise qui se lève"
DR13 -3.00 dB -21.32 dB 1:55 30-Christophe Colomb, Acte IV "Le nouveau monde": "L'arrivée"-Symphonie, Récit "Le voilà, ce rivage"
DR15 -3.34 dB -27.27 dB 5:24 18-Christophe Colomb, Acte II "Une nuit des tropiques": "Le quart"-Rêverie, Air avec chœur "O mer"
DR11 -4.38 dB -21.70 dB 1:47 01-Christophe Colomb, Acte I "Le départ": Introduction-Symphonie
DR12 -11.87 dB -29.22 dB 3:19 14-Christophe Colomb, Acte II "Une nuit des tropiques": Symphonie
DR13 -13.14 dB -29.92 dB 2:15 15-Christophe Colomb, Acte II "Une nuit des tropiques": Air "La mer est ma patrie"
DR16 -5.17 dB -27.60 dB 2:17 27-Christophe Colomb, Acte IV "Le nouveau monde": Danse de sauvages, air de ballet
DR13 -8.47 dB -27.82 dB 2:55 29-Christophe Colomb, Acte IV "Le nouveau monde": "Élégie"-Air "Sur l'arbre solitaire"
DR14 -0.02 dB -18.54 dB 7:26 08-Trio No. 1 en Mi Bémol Majeur: Allegro moderato
DR16 -0.02 dB -22.46 dB 8:18 09-Trio No. 1 en Mi Bémol Majeur: Molto adagio
DR14 -0.43 dB -20.51 dB 9:27 10-Trio No. 1 en Mi Bémol Majeur: Final. Allegretto
––––––––––––––––––––––––––––––––––––––––

Number of tracks: 59
Official DR value: DR14

Samplerate: 48000 Hz
Channels: 2
Bits per sample: 24
Bitrate: 1368 kbps
Codec: FLAC
================================================================================


Thanks to the Original customer.