David Bowie - Aladdin Sane (2013 Remaster) (1973/2013) [Official Digital Download 24/192]

Posted By: pyatak
David Bowie - Aladdin Sane (2013 Remaster) (1973/2013) [Official Digital Download 24/192]

David Bowie - Aladdin Sane (2013 Remaster) (1973/2013) [Official Digital Download 24/192]
FLAC (tracks) 24-bit/192 kHz | Front Cover | Time - 41:46 minutes | 1,6 GB
Pop Rock | Label: Parlophone UK, Official Digital Download

"Let's call it Ziggy goes to America!"Bowie said half jokingly at the time. "The Rise And Fall Of Ziggy Stardust And The Spiders From Mars" made David Robert Jones a superstar in 1972. Away from Elvis, artrock and blues, to irresistibly decadent rock'n'roll with lipstick and sex. With "Aladdin Sane" he drives the party to the top in the following year.

It was previously called "making love to his ego", here Bowie's alter ego mutates overnight into the ruler of an insatiable, erotic orgy. Let's Spend The Night Together! Now, similar to "Ziggy Stardust" 2012, the Kajalplatte appears with freshly applied make-up for her 40th birthday. Its radiance remains unabated.

New Bowieaner to grow in each decade. Longtime friends can rediscover and deepen their old love. The equipment does everything right. No nonsense candy feeding with superfluous bonus nonsense like demos, remixes or new recordings. Instead: the artwork is essential, self-sufficient. For this, the Thin White Duke offers a remastering, as clear and elegant in sound as the Beatles promised with their 2009 boxset. Especially with headphones a pleasure and progress to older editions.

TRACKLIST

1. David Bowie - Watch That Man (2013 Remaster)
2. David Bowie - Aladdin Sane (2013 Remaster)
3. David Bowie - Drive-In Saturday (2013 Remaster)
4. David Bowie - Panic in Detroit (2013 Remaster)
5. David Bowie - Cracked Actor (2013 Remaster)
6. David Bowie - Time (2013 Remaster)
7. David Bowie - The Prettiest Star (2013 Remaster)
8. David Bowie - Let's Spend the Night Together (2013 Remaster)
9. David Bowie - The Jean Genie (2013 Remaster)
10. David Bowie - Lady Grinning Soul (2013 Remaster)

foobar2000 1.6.2 / Dynamic Range Meter 1.1.1
log date: 2021-05-21 19:06:36

––––––––––––––––––––––––––––––––––––––––
Analyzed: David Bowie / Aladdin Sane (2013 Remaster)
––––––––––––––––––––––––––––––––––––––––

DR Peak RMS Duration Track
––––––––––––––––––––––––––––––––––––––––
DR9 -0.20 dB -10.23 dB 4:30 01-Watch That Man (2013 Remaster)
DR9 -0.74 dB -12.11 dB 5:10 02-Aladdin Sane (2013 Remaster)
DR9 -0.20 dB -11.49 dB 4:37 03-Drive-In Saturday (2013 Remaster)
DR9 -0.20 dB -10.84 dB 4:29 04-Panic in Detroit (2013 Remaster)
DR10 -0.20 dB -10.94 dB 3:02 05-Cracked Actor (2013 Remaster)
DR9 -0.20 dB -11.49 dB 5:16 06-Time (2013 Remaster)
DR9 -0.20 dB -11.56 dB 3:32 07-The Prettiest Star (2013 Remaster)
DR10 -0.20 dB -11.83 dB 3:11 08-Let's Spend the Night Together (2013 Remaster)
DR9 -1.70 dB -12.11 dB 4:08 09-The Jean Genie (2013 Remaster)
DR8 -0.20 dB -10.68 dB 3:55 10-Lady Grinning Soul (2013 Remaster)
––––––––––––––––––––––––––––––––––––––––

Number of tracks: 10
Official DR value: DR9

Samplerate: 192000 Hz
Channels: 2
Bits per sample: 24
Bitrate: 5499 kbps
Codec: FLAC
================================================================================



Thanks to the Original customer.