David Bowie - The Width Of A Circle - EP (2021) [Official Digital Download 24/96]

Posted By: pyatak
David Bowie - The Width Of A Circle - EP (2021) [Official Digital Download 24/96]

David Bowie - The Width Of A Circle - EP (2021) [Official Digital Download 24/96]
FLAC (tracks) 24-bit/96 kHz | Front Cover | Time - 15:04 minutes | 344 MB
Rock | Label: Parlophone Records Limited, Official Digital Download

The Width of a Circle, a new posthumous David Bowie album comprised of unreleased tracks from his The Man Who Sold The World era, is due for release on May 28th via Parlophone.

The new release comes in continued celebration of the 50th anniversary of The Man Who Sold The World, Bowie’s landmark entry into the 1970s. Last year, Bowie’s estate re-released the album under its original name, Metrobolist (so the story goes, the label changed the album’s name without Bowie’s permission ahead of its initial release). The re-release also featured a new mix by the album’s original producer, Tony Visconti.

TRACKLIST

01. David Bowie - The Prettiest Star (2020 Mix)
02. David Bowie - London Bye, Ta-Ta (2020 Mix)
03. David Bowie - Memory Of A Free Festival (Single Version; 2020 Mix)
04. David Bowie - Holy Holy (2020 Mix)

foobar2000 1.6.2 / Dynamic Range Meter 1.1.1
log date: 2021-05-28 06:16:53

––––––––––––––––––––––––––––––––––––––––
Analyzed: David Bowie / The Width Of A Circle - EP
––––––––––––––––––––––––––––––––––––––––

DR Peak RMS Duration Track
––––––––––––––––––––––––––––––––––––––––
DR11 -0.10 dB -13.39 dB 3:34 01-The Prettiest Star (2020 Mix)
DR10 -0.10 dB -12.44 dB 2:42 02-London Bye, Ta-Ta (2020 Mix)
DR9 -0.49 dB -12.71 dB 5:23 03-Memory Of A Free Festival (Single Version; 2020 Mix)
DR9 -0.10 dB -10.75 dB 3:26 04-Holy Holy (2020 Mix)
––––––––––––––––––––––––––––––––––––––––

Number of tracks: 4
Official DR value: DR10

Samplerate: 96000 Hz
Channels: 2
Bits per sample: 24
Bitrate: 3121 kbps
Codec: FLAC
================================================================================



Thanks to the Original customer.