Davide Cabassi - Beethoven: Piano Sonatas Opp. 53, 54, 57 & Andante favori, WoO 57 (2016) [Official Digital Download 24/96]

Posted By: SERTiL
Davide Cabassi - Beethoven: Piano Sonatas Opp. 53, 54, 57 & Andante favori, WoO 57 (2016) [Official Digital Download 24/96]

Davide Cabassi - Beethoven: Piano Sonatas Opp. 53, 54, 57 & Andante favori, WoO 57 (2016)
FLAC (tracks) 24-bit/96 kHz | Time - 69:21 minutes | 979 MB
Studio Master, Official Digital Download | Artwork: Front Cover

2005 Van Cliburn Piano Competition top-prize winner Davide Cabassi made his orchestral debut at the age of thirteen with the RAI Radio Symphony Orchestra in Milan. He has also collaborated with the Munich Philharmonic, Orchestra Filarmonica della Scala, the Neue Philharmonie Westfalen, Magdeburg Philhamoniker, the Russian Chamber Philharmonic, OSI Lugano, Fort Worth Symphony, Enid Symphony, Big Spring Symphony, Hartford Symphony, Orquesta Sinfonica de Cordoba, Orquesta de Mar del Plata, Orchestra Haydn Bolzano, Orchestra Verdi Milano, Orchestra Pomeriggi Musicali Milano, Orchestra di Padova e del Veneto, Orchestra Romantique Parigi, Tiroler Festspiele Orchestra, Orchestre Romantique Paris, as well as with many other orchestras working with such conductors as Gustav Kuhn, James Conlon, Asher Fisch, Antonello Manacorda, David Coleman, Vladimir Delman, Marco Angius, Tito Ceccherini, Enrique Mazzola, Daniele Gatti, Kimbo Ishi-Ito, Helmut Rilling among others.

Tracklist:

Ludwig van Beethoven (1770-1827)

01. Beethoven: Piano Sonata No.21 In C Major, Op.53 -"Waldstein"-1. Allegro Con Brio
02. Beethoven: Piano Sonata No.21 In C Major, Op.53 -"Waldstein"-2. Introduzione (Adagio Molto)
03. Beethoven: Piano Sonata No.21 In C Major, Op.53 -"Waldstein"-3. Rondo (Allegretto Moderato-Prestissimo)
04. Beethoven: Andante favori in F, WoO 57-Andante Grazioso Con Moto
05. Beethoven: Piano Sonata No.22 in F, Op.54-1. In Tempo D'Un Menuetto
06. Beethoven: Piano Sonata No.22 in F, Op.54-2. Allegretto-3. Più Allegro
07. Beethoven: Piano Sonata No.23 in F minor, Op.57 -"Appassionata"-1. Allegro Assai
08. Beethoven: Piano Sonata No.23 in F minor, Op.57 -"Appassionata"-2. Andante Con Moto
09. Beethoven: Piano Sonata No.23 in F minor, Op.57 -"Appassionata"-3. Allegro Ma Non Troppo

Personnel:
Davide Cabassi, piano

foobar2000 1.3.7 / Dynamic Range Meter 1.1.1
log date: 2017-12-25 18:26:54

––––––––––––––––––––––––––––––––––––––––
Analyzed: Davide Cabassi / Beethoven: Piano Sonatas Opp. 53, 54, 57 & Andante favori, WoO 57
––––––––––––––––––––––––––––––––––––––––

DR Peak RMS Duration Track
––––––––––––––––––––––––––––––––––––––––
DR11 -3.18 dB -18.20 dB 10:48 01-Beethoven: Piano Sonata No.21 In C Major, Op.53 -"Waldstein"-1. Allegro Con Brio
DR15 -8.08 dB -29.30 dB 4:55 02-Beethoven: Piano Sonata No.21 In C Major, Op.53 -"Waldstein"-2. Introduzione (Adagio Molto)
DR11 -3.14 dB -18.06 dB 10:16 03-Beethoven: Piano Sonata No.21 In C Major, Op.53 -"Waldstein"-3. Rondo (Allegretto Moderato-Prestissimo)
DR13 -5.23 dB -22.69 dB 8:21 04-Beethoven: Andante favori in F, WoO 57-Andante Grazioso Con Moto
DR11 -3.38 dB -20.14 dB 5:45 05-Beethoven: Piano Sonata No.22 in F, Op.54-1. In Tempo D'Un Menuetto
DR10 -3.52 dB -16.55 dB 5:34 06-Beethoven: Piano Sonata No.22 in F, Op.54-2. Allegretto-3. Più Allegro
DR10 -3.60 dB -18.42 dB 9:24 07-Beethoven: Piano Sonata No.23 in F minor, Op.57 -"Appassionata"-1. Allegro Assai
DR14 -5.03 dB -23.69 dB 6:01 08-Beethoven: Piano Sonata No.23 in F minor, Op.57 -"Appassionata"-2. Andante Con Moto
DR10 -3.50 dB -16.95 dB 8:21 09-Beethoven: Piano Sonata No.23 in F minor, Op.57 -"Appassionata"-3. Allegro Ma Non Troppo
––––––––––––––––––––––––––––––––––––––––

Number of tracks: 9
Official DR value: DR12

Samplerate: 96000 Hz
Channels: 2
Bits per sample: 24
Bitrate: 2007 kbps
Codec: FLAC
================================================================================


Thanks to the Original customer.