Tags
Language
Tags
February 2023
Su Mo Tu We Th Fr Sa
29 30 31 1 2 3 4
5 6 7 8 9 10 11
12 13 14 15 16 17 18
19 20 21 22 23 24 25
26 27 28 1 2 3 4

Dead & Company - Bethel Woods Center For the Arts, Bethel, NY 8-23-21 (2022) [Official Digital Download 24/96]

Posted By: pyatak
Dead & Company - Bethel Woods Center For the Arts, Bethel, NY 8-23-21 (2022) [Official Digital Download 24/96]

Dead & Company - Bethel Woods Center For the Arts, Bethel, NY 8-23-21 (2022) [Official Digital Download 24/96]
FLAC (tracks) 24-bit/96 kHz | Front Cover | Time - 03:11:24 minutes | 4,0 GB
Rock | Studio Master, Official Digital Download

Dead & Company is an American jam band consisting of former Grateful Dead members Bob Weir (guitar), Mickey Hart (drums), and Bill Kreutzmann (drums), along with John Mayer (guitar), Oteil Burbridge (bass/drums), and Jeff Chimenti (keyboards). The band continues the strong live tradition of the Grateful Dead, creating unforgettable experiences at their shows, no two performances being alike.

To date, the band has released no studio recordings, but all of their concerts to date have been (or are being) released as albums.

TRACKLIST

1. Dead & Company - Hell in a Bucket (Live at Bethel Woods Center For the Arts, Bethel, NY 8/23/21)
2. Dead & Company - Easy Wind (Live at Bethel Woods Center For the Arts, Bethel, NY 8/23/21)
3. Dead & Company - Loser (Live at Bethel Woods Center For the Arts, Bethel, NY 8/23/21)
4. Dead & Company - Brown-Eyed Woman (Live at Bethel Woods Center For the Arts, Bethel, NY 8/23/21)
5. Dead & Company - Throwing Stones (Live at Bethel Woods Center For the Arts, Bethel, NY 8/23/21)
6. Dead & Company - Row Jimmy (Live at Bethel Woods Center For the Arts, Bethel, NY 8/23/21)
7. Dead & Company - Lost Sailor (Live at Bethel Woods Center For the Arts, Bethel, NY 8/23/21)
8. Dead & Company - Saint of Circumstance (Live at Bethel Woods Center For the Arts, Bethel, NY 8/23/21)
9. Dead & Company - St. Stephen (Live at Bethel Woods Center For the Arts, Bethel, NY 8/23/21)
10. Dead & Company - Mama Tried (Live at Bethel Woods Center For the Arts, Bethel, NY 8/23/21)
11. Dead & Company - Dark Star (Live at Bethel Woods Center For the Arts, Bethel, NY 8/23/21)
12. Dead & Company - High Time (Live at Bethel Woods Center For the Arts, Bethel, NY 8/23/21)
13. Dead & Company - Turn on Your Lovelight (Live at Bethel Woods Center For the Arts, Bethel, NY 8/23/21)
14. Dead & Company - Drums (Live at Bethel Woods Center For the Arts, Bethel, NY 8/23/21)
15. Dead & Company - Space (Live at Bethel Woods Center For the Arts, Bethel, NY 8/23/21)
16. Dead & Company - Deal (Live at Bethel Woods Center For the Arts, Bethel, NY 8/23/21)
17. Dead & Company - Standing on the Moon (Live at Bethel Woods Center For the Arts, Bethel, NY 8/23/21)
18. Dead & Company - Turn on Your Lovelight, Pt. 2 (Live at Bethel Woods Center For the Arts, Bethel, NY 8/23/21)
19. Dead & Company - Ripple (Live at Bethel Woods Center For the Arts, Bethel, NY 8/23/21)

foobar2000 1.6.2 / Dynamic Range Meter 1.1.1
log date: 2022-09-09 20:14:56

––––––––––––––––––––––––––––––––––––––––
Analyzed: Dead & Company / Bethel Woods Center For the Arts, Bethel, NY 8/23/21
––––––––––––––––––––––––––––––––––––––––

DR Peak RMS Duration Track
––––––––––––––––––––––––––––––––––––––––
DR11 -0.10 dB -13.51 dB 13:47 01-Hell in a Bucket (Live at Bethel Woods Center For the Arts, Bethel, NY 8/23/21)
DR12 -0.10 dB -13.98 dB 6:01 02-Easy Wind (Live at Bethel Woods Center For the Arts, Bethel, NY 8/23/21)
DR13 -0.10 dB -16.04 dB 9:45 03-Loser (Live at Bethel Woods Center For the Arts, Bethel, NY 8/23/21)
DR12 -0.10 dB -13.73 dB 7:17 04-Brown-Eyed Woman (Live at Bethel Woods Center For the Arts, Bethel, NY 8/23/21)
DR12 -0.10 dB -14.91 dB 11:57 05-Throwing Stones (Live at Bethel Woods Center For the Arts, Bethel, NY 8/23/21)
DR13 -0.10 dB -15.24 dB 10:27 06-Row Jimmy (Live at Bethel Woods Center For the Arts, Bethel, NY 8/23/21)
DR13 -0.10 dB -15.94 dB 8:24 07-Lost Sailor (Live at Bethel Woods Center For the Arts, Bethel, NY 8/23/21)
DR11 -0.10 dB -13.43 dB 8:53 08-Saint of Circumstance (Live at Bethel Woods Center For the Arts, Bethel, NY 8/23/21)
DR13 -0.10 dB -14.78 dB 21:08 09-St. Stephen (Live at Bethel Woods Center For the Arts, Bethel, NY 8/23/21)
DR11 -0.10 dB -13.21 dB 4:15 10-Mama Tried (Live at Bethel Woods Center For the Arts, Bethel, NY 8/23/21)
DR13 -0.10 dB -16.57 dB 21:45 11-Dark Star (Live at Bethel Woods Center For the Arts, Bethel, NY 8/23/21)
DR13 -0.10 dB -15.35 dB 8:00 12-High Time (Live at Bethel Woods Center For the Arts, Bethel, NY 8/23/21)
DR13 -0.10 dB -14.74 dB 9:58 13-Turn on Your Lovelight (Live at Bethel Woods Center For the Arts, Bethel, NY 8/23/21)
DR12 -0.10 dB -14.32 dB 9:45 14-Drums (Live at Bethel Woods Center For the Arts, Bethel, NY 8/23/21)
DR12 -5.14 dB -22.44 dB 10:48 15-Space (Live at Bethel Woods Center For the Arts, Bethel, NY 8/23/21)
DR11 -0.10 dB -13.08 dB 10:03 16-Deal (Live at Bethel Woods Center For the Arts, Bethel, NY 8/23/21)
DR12 -0.10 dB -15.73 dB 9:42 17-Standing on the Moon (Live at Bethel Woods Center For the Arts, Bethel, NY 8/23/21)
DR12 -0.10 dB -14.10 dB 3:07 18-Turn on Your Lovelight, Pt. 2 (Live at Bethel Woods Center For the Arts, Bethel, NY 8/23/21)
DR13 -0.10 dB -15.12 dB 6:35 19-Ripple (Live at Bethel Woods Center For the Arts, Bethel, NY 8/23/21)
––––––––––––––––––––––––––––––––––––––––

Number of tracks: 19
Official DR value: DR12

Samplerate: 96000 Hz
Channels: 2
Bits per sample: 24
Bitrate: 3013 kbps
Codec: FLAC
================================================================================



Thanks to the Original customer.