Tags
Language
Tags

Dean Martin - Simply ... Dino! (2020 Remaster) (2020) [Official Digital Download]

Posted By: pyatak
Dean Martin - Simply ... Dino! (2020 Remaster) (2020) [Official Digital Download]

Dean Martin - Simply … Dino! (2020 Remaster) (2020) [Official Digital Download]
FLAC (tracks) 24-bit/48 kHz | Front Cover | Time - 03:59:53 minutes | 2,49 GB
Pop | Label: Jube Legends, Official Digital Download

Dean Martin (born Dino Paul Crocetti; June 7, 1917 – December 25, 1995) was an American actor, singer and comedian. One of the most popular and enduring American entertainers of the mid-20th century, Martin was nicknamed "The King of Cool" for his seemingly effortless charisma and self-assurance.

Martin gained his career breakthrough together with comedian Jerry Lewis, billed as Martin & Lewis, in 1946. They performed in nightclubs and later had numerous appearances on radio, television and in films. Following an acrimonious ending of the partnership in 1956, Martin pursued a solo career as a performer and actor.

Martin established himself as a notable singer, recording numerous contemporary songs as well as standards from the Great American Songbook. He became one of the most popular acts in Las Vegas and was known for his friendship with fellow artists Frank Sinatra and Sammy Davis Jr., who together formed the Rat Pack.

TRACKLIST

1. Dorothy Fields - I feel a Song comin' on
2. Frank Miller - Memories Are made of This
3. John Rox - Change of Heart
4. Ralph Rainger - June in January
5. Carmen Lombardo - In Napoli
6. Alan Bergman - The Man who plays the Mandolino
7. Harry Revel - I feel like a Feather in the Breeze
8. Bob Hilliard - Living It up: How to speak to an Angel
9. Paul Francis Webster - Hollywood or Bust: It looks like love
10. Bob Merrill - Mambo Italiano
11. Sammy Cahn - Relax-ay-vous
12. Clarence Muse - Sleepy Time Down South
13. Peter de Rose - Somebody lovey you
14. Leo Johns - Melodie D'Amour
15. Sunny Skylar - Just a little bit South of Carolina
16. M. Rotha - That's all I want from you
17. Arthur Johnston - Just one more Chance
18. Louis Yule Brown - Street of love
19. Buddy Kaye - I'm gonna steal you away
20. Paul Francis Webster - Hollywood or Bust: A Day in the Country
21. Albert Beach - I wish you Love
22. Bob Hilliard - Living It up: Money burns a Hole in my Pocket
23. Bob Hilliard - Living It up: That's what Iike
24. Otto Kellman - Try again
25. Al Hill - One more time
26. Eugene Ford - Rain
27. Stuart Gorrell - Georgia on my mind
28. Paul Francis Webster - Hollywood or Bust: Let's be friendly
29. Harry Barris - Mississippi Mud
30. Mitchell Parish - Volare (Nel blu dipinto di blu)
31. John Farrow - I have but one Heart ('O Marenariello)
32. Jimmy Dale - Just say I love you (Dicitencello vuie)
33. Sunny Skylar - Amor!
34. Al Sigmann - Seven Hills of Rome: Arrivederci Roma
35. Sunny Skylar - You're breaking my heart (Mattinata)
36. Shelley Dobbins - On an evening in Rome (Sott'er cele de Roma)
37. Shelley Dobbins - Non dimenticar
38. Al Stillman - My heart reminds me
39. Joe Lilley - Take me in your arms (Torna a Surriento)
40. Johnny Cola - Vieni su
41. Al Hoffman - There's no tomorrow (O sole mio)
42. Carmen Lombardo - Forgive me (Perdoname)
43. Carmen Lombardo - Return to me (Ritonra me)
44. Jenny Lou Carson - Let me go, lover
45. Lewis & Young - Dinah
46. Sammy Cahn - The things we did last summer
47. Al Goering - Who's your little Who-zis
48. Harry Revel - With my Eyes wide open
49. Dorcas Cochran - Under the Bridges of Paris
50. Irving Caesar - Is It true what they say about Dixie
51. Frank Loesser - Neptun's Daughter: Baby It's cold outside
52. Joseph Alden - Sleepy Time Gal
53. Gus Kahn - Dream a little Dream of me
54. Alan J. Lerner - My Fair Lady: On the street where you live
55. Betty Comden - Just in Time
56. Arthur Freed - All I do Is dream of you
57. Irving Berlin - On the Avenue: I've got my love to keep me warm
58. L. Wolfe Gilbert - Waiting for the Robert e. Lee
59. Henry Craemer - Way down yonder in New Orleans
60. Ted Koehler - Out in the Cold
61. Fred Ebb - Me gustan todos (I like them all)
62. Gene Autry - Be honest woth me
63. Bob Hilliard - Living It up: Every Street's a Boulevard in Old New York
64. Barry Trivers - Two Loves I have
65. Fred Fisher - Meet Danny Wilson: When you're smiling
66. Fred E. Ahlert - Powder your face with Sunshine
67. Haven Gillespie - That lucky old Sun
68. Harold Rome - The Money Song
69. Ray Gilbert - Muskrat Ramble
70. Spencer Williams - Basin Street Blues
71. Norman Gimbel - Canadian Sunset
72. Ned Washington - A hundred Years from today
73. RED EVANS - If Love Is good to me
74. Mack David - I don't care If the Sun don't shine
75. Elsie Janis - The Trespasser: Love - Your magic spell Is everywhere
76. Alex Oishey - I love you much too much
77. Mitchell Parish - Let me love you tonight
78. Gus Kahn - The Passing Show: Carolina in the Morning
79. Joe Burke - Carolina Moon
80. Irving Berlin - Annie get your gun: I got the sun in the morning
81. Louis Prima - Oh Marie, oh Marie!
82. Fred E. Ahlert - Walkin' my Baby back home
83. Jay Livingston - My Friend Irma goes West: I always love you
84. Frank Loesser - Two sleepy people
85. Hector Marchese - What could be more beautiful
86. Lou Monte - Luna mezzo mare
87. Robert Mellin - My one and only Love
88. Ivory Watson - I love you for sentimental reasons
89. Johnny Mercer - In the Cool Cool Cool of the Evening
90. Herman Hupfeld - Let's put out the light and go to sleep

foobar2000 1.3.16 / Dynamic Range Meter 1.1.1
log date: 2020-10-06 21:02:45

––––––––––––––––––––––––––––––––––––––––
Analyzed: Al Goering / Simply … Dino! (2020 Remaster) (1)
Al Hill / Simply … Dino! (2020 Remaster) (2)
Al Hoffman / Simply … Dino! (2020 Remaster) (3)
Al Sigmann / Simply … Dino! (2020 Remaster) (4)
Al Stillman / Simply … Dino! (2020 Remaster) (5)
Alan Bergman / Simply … Dino! (2020 Remaster) (6)
Alan J. Lerner / Simply … Dino! (2020 Remaster) (7)
Albert Beach / Simply … Dino! (2020 Remaster) (8)
Alex Oishey / Simply … Dino! (2020 Remaster) (9)
Arthur Freed / Simply … Dino! (2020 Remaster) (10)
Arthur Johnston / Simply … Dino! (2020 Remaster) (11)
Barry Trivers / Simply … Dino! (2020 Remaster) (12)
Betty Comden / Simply … Dino! (2020 Remaster) (13)
Bob Hilliard / Simply … Dino! (2020 Remaster) (14-17)
Bob Merrill / Simply … Dino! (2020 Remaster) (18)
Buddy Kaye / Simply … Dino! (2020 Remaster) (19)
Carmen Lombardo / Simply … Dino! (2020 Remaster) (20-22)
Clarence Muse / Simply … Dino! (2020 Remaster) (23)
Dorcas Cochran / Simply … Dino! (2020 Remaster) (24)
Dorothy Fields / Simply … Dino! (2020 Remaster) (25)
Elsie Janis / Simply … Dino! (2020 Remaster) (26)
Eugene Ford / Simply … Dino! (2020 Remaster) (27)
Frank Loesser / Simply … Dino! (2020 Remaster) (28-29)
Frank Miller / Simply … Dino! (2020 Remaster) (30)
Fred E. Ahlert / Simply … Dino! (2020 Remaster) (31-32)
Fred Ebb / Simply … Dino! (2020 Remaster) (33)
Fred Fisher / Simply … Dino! (2020 Remaster) (34)
Gene Autry / Simply … Dino! (2020 Remaster) (35)
Gus Kahn / Simply … Dino! (2020 Remaster) (36-37)
Harold Rome / Simply … Dino! (2020 Remaster) (38)
Harry Barris / Simply … Dino! (2020 Remaster) (39)
Harry Revel / Simply … Dino! (2020 Remaster) (40-41)
Haven Gillespie / Simply … Dino! (2020 Remaster) (42)
Hector Marchese / Simply … Dino! (2020 Remaster) (43)
Henry Craemer / Simply … Dino! (2020 Remaster) (44)
Herman Hupfeld / Simply … Dino! (2020 Remaster) (45)
Irving Berlin / Simply … Dino! (2020 Remaster) (46-47)
Irving Caesar / Simply … Dino! (2020 Remaster) (48)
Ivory Watson / Simply … Dino! (2020 Remaster) (49)
Jay Livingston / Simply … Dino! (2020 Remaster) (50)
Jenny Lou Carson / Simply … Dino! (2020 Remaster) (51)
Jimmy Dale / Simply … Dino! (2020 Remaster) (52)
Joe Burke / Simply … Dino! (2020 Remaster) (53)
Joe Lilley / Simply … Dino! (2020 Remaster) (54)
John Farrow / Simply … Dino! (2020 Remaster) (55)
John Rox / Simply … Dino! (2020 Remaster) (56)
Johnny Cola / Simply … Dino! (2020 Remaster) (57)
Johnny Mercer / Simply … Dino! (2020 Remaster) (58)
Joseph Alden / Simply … Dino! (2020 Remaster) (59)
L. Wolfe Gilbert / Simply … Dino! (2020 Remaster) (60)
Leo Johns / Simply … Dino! (2020 Remaster) (61)
Lewis & Young / Simply … Dino! (2020 Remaster) (62)
Lou Monte / Simply … Dino! (2020 Remaster) (63)
Louis Prima / Simply … Dino! (2020 Remaster) (64)
Louis Yule Brown / Simply … Dino! (2020 Remaster) (65)
M. Rotha / Simply … Dino! (2020 Remaster) (66)
Mack David / Simply … Dino! (2020 Remaster) (67)
Mitchell Parish / Simply … Dino! (2020 Remaster) (68-69)
Ned Washington / Simply … Dino! (2020 Remaster) (70)
Norman Gimbel / Simply … Dino! (2020 Remaster) (71)
Otto Kellman / Simply … Dino! (2020 Remaster) (72)
Paul Francis Webster / Simply … Dino! (2020 Remaster) (73-75)
Peter de Rose / Simply … Dino! (2020 Remaster) (76)
Ralph Rainger / Simply … Dino! (2020 Remaster) (77)
Ray Gilbert / Simply … Dino! (2020 Remaster) (78)
RED EVANS / Simply … Dino! (2020 Remaster) (79)
Robert Mellin / Simply … Dino! (2020 Remaster) (80)
Sammy Cahn / Simply … Dino! (2020 Remaster) (81-82)
Shelley Dobbins / Simply … Dino! (2020 Remaster) (83-84)
Spencer Williams / Simply … Dino! (2020 Remaster) (85)
Stuart Gorrell / Simply … Dino! (2020 Remaster) (86)
Sunny Skylar / Simply … Dino! (2020 Remaster) (87-89)
Ted Koehler / Simply … Dino! (2020 Remaster) (90)
––––––––––––––––––––––––––––––––––––––––

DR Peak RMS Duration Track
––––––––––––––––––––––––––––––––––––––––
DR12 -0.01 dB -14.27 dB 2:18 47-Who's your little Who-zis
DR10 -0.01 dB -11.50 dB 2:39 25-One more time
DR11 -0.01 dB -13.76 dB 2:47 41-There's no tomorrow (O sole mio)
DR11 -0.01 dB -14.28 dB 2:40 34-Seven Hills of Rome: Arrivederci Roma
DR11 -0.01 dB -13.25 dB 2:38 38-My heart reminds me
DR10 -0.01 dB -13.48 dB 2:49 06-The Man who plays the Mandolino
DR11 -0.01 dB -13.72 dB 3:39 54-My Fair Lady: On the street where you live
DR13 -0.01 dB -16.57 dB 2:22 21-I wish you Love
DR12 -0.01 dB -15.79 dB 2:31 76-I love you much too much
DR11 -0.01 dB -13.63 dB 2:42 56-All I do Is dream of you
DR11 -0.01 dB -13.49 dB 3:14 17-Just one more Chance
DR13 -0.01 dB -16.97 dB 2:08 64-Two Loves I have
DR10 -0.01 dB -13.63 dB 2:11 55-Just in Time
DR14 -0.01 dB -16.30 dB 3:06 08-Living It up: How to speak to an Angel
DR13 -0.01 dB -15.28 dB 2:59 22-Living It up: Money burns a Hole in my Pocket
DR12 -0.01 dB -14.82 dB 2:00 23-Living It up: That's what Iike
DR11 -0.01 dB -13.74 dB 2:22 63-Living It up: Every Street's a Boulevard in Old New York
DR12 -0.01 dB -13.72 dB 2:18 10-Mambo Italiano
DR11 -0.01 dB -12.64 dB 2:27 19-I'm gonna steal you away
DR10 -0.01 dB -11.74 dB 2:52 05-In Napoli
DR11 -0.01 dB -13.45 dB 2:59 42-Forgive me (Perdoname)
DR11 -0.01 dB -13.37 dB 2:43 43-Return to me (Ritonra me)
DR12 -0.01 dB -14.43 dB 2:49 12-Sleepy Time Down South
DR10 -0.01 dB -12.70 dB 2:45 49-Under the Bridges of Paris
DR11 -0.01 dB -12.27 dB 1:49 01-I feel a Song comin' on
DR12 -0.01 dB -15.31 dB 2:24 75-The Trespasser: Love - Your magic spell Is everywhere
DR11 -0.01 dB -13.59 dB 2:38 26-Rain
DR11 -0.01 dB -13.23 dB 2:18 51-Neptun's Daughter: Baby It's cold outside
DR12 -0.01 dB -14.52 dB 2:50 84-Two sleepy people
DR13 -0.01 dB -15.59 dB 2:14 02-Memories Are made of This
DR12 -0.01 dB -14.72 dB 2:30 66-Powder your face with Sunshine
DR11 -0.01 dB -12.69 dB 2:51 82-Walkin' my Baby back home
DR11 -0.01 dB -13.63 dB 2:41 61-Me gustan todos (I like them all)
DR12 -0.01 dB -15.13 dB 3:00 65-Meet Danny Wilson: When you're smiling
DR12 -0.01 dB -13.57 dB 2:25 62-Be honest woth me
DR8 -0.01 dB -12.51 dB 3:14 53-Dream a little Dream of me
DR12 -0.01 dB -13.76 dB 2:14 78-The Passing Show: Carolina in the Morning
DR13 -0.01 dB -15.29 dB 3:06 68-The Money Song
DR13 -0.01 dB -14.47 dB 3:05 29-Mississippi Mud
DR11 -0.01 dB -13.27 dB 2:44 07-I feel like a Feather in the Breeze
DR12 -0.01 dB -14.61 dB 3:04 48-With my Eyes wide open
DR13 -0.01 dB -14.90 dB 2:59 67-That lucky old Sun
DR12 -0.01 dB -15.25 dB 3:10 85-What could be more beautiful
DR12 -2.52 dB -16.85 dB 2:18 59-Way down yonder in New Orleans
DR9 -0.01 dB -12.98 dB 2:42 90-Let's put out the light and go to sleep
DR12 -0.01 dB -14.99 dB 2:40 57-On the Avenue: I've got my love to keep me warm
DR11 -0.01 dB -13.71 dB 2:51 80-Annie get your gun: I got the sun in the morning
DR12 -0.01 dB -14.37 dB 2:25 50-Is It true what they say about Dixie
DR13 -0.01 dB -14.58 dB 2:34 88-I love you for sentimental reasons
DR11 -0.01 dB -14.17 dB 2:32 83-My Friend Irma goes West: I always love you
DR11 -0.01 dB -14.73 dB 2:59 44-Let me go, lover
DR11 -0.01 dB -14.87 dB 2:45 32-Just say I love you (Dicitencello vuie)
DR12 -0.01 dB -14.28 dB 2:31 79-Carolina Moon
DR10 -0.01 dB -12.95 dB 2:37 39-Take me in your arms (Torna a Surriento)
DR11 -0.01 dB -13.73 dB 3:02 31-I have but one Heart ('O Marenariello)
DR13 -0.01 dB -15.41 dB 2:28 03-Change of Heart
DR10 -0.01 dB -12.66 dB 2:24 40-Vieni su
DR12 -0.01 dB -13.91 dB 2:57 89-In the Cool Cool Cool of the Evening
DR11 -0.01 dB -14.69 dB 2:48 52-Sleepy Time Gal
DR11 -0.01 dB -12.96 dB 2:17 58-Waiting for the Robert e. Lee
DR13 -0.01 dB -15.14 dB 2:16 14-Melodie D'Amour
DR14 -0.01 dB -15.61 dB 2:19 45-Dinah
DR11 -0.01 dB -15.01 dB 2:04 86-Luna mezzo mare
DR10 -0.01 dB -12.59 dB 2:29 81-Oh Marie, oh Marie!
DR10 -0.01 dB -12.08 dB 2:44 18-Street of love
DR11 -0.01 dB -13.74 dB 2:31 16-That's all I want from you
DR12 -0.01 dB -14.19 dB 1:52 74-I don't care If the Sun don't shine
DR11 -0.01 dB -13.78 dB 2:57 30-Volare (Nel blu dipinto di blu)
DR13 -0.01 dB -16.72 dB 2:20 77-Let me love you tonight
DR12 -0.01 dB -16.01 dB 2:41 72-A hundred Years from today
DR12 -0.01 dB -14.97 dB 3:11 71-Canadian Sunset
DR10 -0.01 dB -12.12 dB 2:40 24-Try again
DR11 -0.01 dB -13.31 dB 2:17 09-Hollywood or Bust: It looks like love
DR11 -0.01 dB -12.54 dB 2:45 20-Hollywood or Bust: A Day in the Country
DR12 -0.01 dB -14.17 dB 1:59 28-Hollywood or Bust: Let's be friendly
DR13 -0.01 dB -14.58 dB 2:34 13-Somebody lovey you
DR11 -0.01 dB -14.27 dB 2:45 04-June in January
DR13 -0.01 dB -14.91 dB 3:02 69-Muskrat Ramble
DR13 -0.01 dB -14.99 dB 3:03 73-If Love Is good to me
DR13 -0.01 dB -16.57 dB 2:28 87-My one and only Love
DR13 -0.01 dB -15.40 dB 2:51 11-Relax-ay-vous
DR12 -0.01 dB -14.41 dB 3:35 46-The things we did last summer
DR12 -0.01 dB -14.31 dB 2:27 36-On an evening in Rome (Sott'er cele de Roma)
DR11 -0.01 dB -14.82 dB 3:04 37-Non dimenticar
DR12 -0.01 dB -14.97 dB 2:20 70-Basin Street Blues
DR12 -0.01 dB -14.86 dB 3:00 27-Georgia on my mind
DR12 -0.01 dB -14.49 dB 2:04 15-Just a little bit South of Carolina
DR13 -0.01 dB -16.90 dB 3:09 33-Amor!
DR10 -0.01 dB -12.19 dB 2:44 35-You're breaking my heart (Mattinata)
DR11 -0.01 dB -14.05 dB 3:33 60-Out in the Cold
––––––––––––––––––––––––––––––––––––––––

Number of tracks: 90
Official DR value: DR12

Samplerate: 48000 Hz
Channels: 2
Bits per sample: 24
Bitrate: 1397 kbps
Codec: FLAC
================================================================================



Thanks to the Original customer.