Tags
Language
Tags

Deller Consort - Purcell: The Fairy Queen (Remastered) (2019) [Official Digital Download 24/96]

Posted By: SERTiL
Deller Consort - Purcell: The Fairy Queen (Remastered) (2019) [Official Digital Download 24/96]

Deller Consort - Purcell: The Fairy Queen (Remastered) (2019)
FLAC (tracks) 24-bit/96 kHz | Time - 129:58 minutes | 2.40 GB
Studio Master, Official Digital Download | Artwork: Front Cover

A masterpiece of the ‘semi-opera’. In 1692, on the strength of the immense success of Dido & Aeneas and King Arthur, Purcell went on to produce The Fairy Queen, based on Shakespeare’s A Midsummer-Night’s Dream.

The work is, in fact a ‘semi-opéra’, or ‘opera with dialogue’, in which only some of the crucial scenes are provided with music. But this version of A Midsummer-Night’s Dream by the ‘Orpheus Britannicus’ became almost as famous as the play that inspired it, with its love scenes, its supernatural scenes and its innate sense of musical humour investing it with an irresistible savour and enchantment.

Tracklist:
01. The Fairy Queen, Z. 629, The First Musick: I. Prelude (1:58)
02. The Fairy Queen, Z. 629, The First Musick: II. Hornpipe (0:58)
03. The Fairy Queen, Z. 629, The Second Musick: I. Air (0:59)
04. The Fairy Queen, Z. 629, The Second Musick: II. Rondeau (1:21)
05. The Fairy Queen, Z. 629, The Second Musick: III. Overture (0:36)
06. The Fairy Queen, Z. 629, Act I: "Come let us leave" (Two Fairies) (3:13)
07. The Fairy Queen, Z. 629, Act I: Scene of the drunken poet (5:47)
08. The Fairy Queen, Z. 629, Act I: First Act tune (1:13)
09. The Fairy Queen, Z. 629, Act II: Prelude. "Come all ye songsters" (A Fairy) (1:57)
10. The Fairy Queen, Z. 629, Act II: Prelude. (0:42)
11. The Fairy Queen, Z. 629, Act II: "May the God of wit" (Three Fairies) (0:59)
12. The Fairy Queen, Z. 629, Act II: Echo. Now join your warbling voices (1:33)
13. The Fairy Queen, Z. 629, Act II: "Sing while we trip" (A Fairy). Fairy Dance (2:13)
14. The Fairy Queen, Z. 629, Act II: "See, even night" (Night) (5:14)
15. The Fairy Queen, Z. 629, Act II: "I am come to lock" (Mistery) (0:46)
16. The Fairy Queen, Z. 629, Act II: "One charming night" (Secret) (2:05)
17. The Fairy Queen, Z. 629, Act II: "Hush, no more" (Sleep) (5:02)
18. The Fairy Queen, Z. 629, Act II: Dance for the followers of Night (2:24)
19. The Fairy Queen, Z. 629, Act II: Second Act tune (1:22)
20. The Fairy Queen, Z. 629, Act III: "If love's a sweet passion" (A Nymph) (2:18)
21. The Fairy Queen, Z. 629, Act III: Symphony while the swans come forward (3:24)
22. The Fairy Queen, Z. 629, Act III: Dance for the Fairies (0:52)
23. The Fairy Queen, Z. 629, Act III: Dance for the Green Men (1:51)
24. The Fairy Queen, Z. 629, Act III: "Ye gentle spirits of the air" (A Nymph) (4:54)
25. The Fairy Queen, Z. 629, Act III: Dialogue between Corydon and Mopsa (3:51)
26. The Fairy Queen, Z. 629, Act III: "When I have often heard" (A Nymph) (2:48)
27. The Fairy Queen, Z. 629, Act III: Dance for the Haymakers (0:52)
28. The Fairy Queen, Z. 629, Act III: "A thousand, thousand ways" (Corydon, Mopsa) (2:33)
29. The Fairy Queen, Z. 629, Act III: Third Act tune (1:01)
30. The Fairy Queen, Z. 629, Act IV: Symphony (6:14)
31. The Fairy Queen, Z. 629, Act IV: "Now the night" (Attendants) (2:16)
32. The Fairy Queen, Z. 629, Act IV: "Let the fifes and the clarions" (Attendants) (1:25)
33. The Fairy Queen, Z. 629, Act IV: Entry of Phoebus (0:45)
34. The Fairy Queen, Z. 629, Act IV: "When a cruel long winter" (Phoebus) (3:11)
35. The Fairy Queen, Z. 629, Act IV: "Hail! Great parent" (Fairies) (2:08)
36. The Fairy Queen, Z. 629, Act IV: "Thus the ever grateful Spring" (Spring) (2:10)
37. The Fairy Queen, Z. 629, Act IV: "Here's the summer" (Summer) (1:11)
38. The Fairy Queen, Z. 629, Act IV: "See, see my many colour'd fields" (Automn) (2:55)
39. The Fairy Queen, Z. 629, Act IV: "Now winter comes slowly" (Winter) (2:49)
40. The Fairy Queen, Z. 629, Act IV: "Hail! Great parent!" (Fairies) (1:09)
41. The Fairy Queen, Z. 629, Act IV: Fourth Act tune (1:06)
42. The Fairy Queen, Z. 629, Act V: Prelude (0:36)
43. The Fairy Queen, Z. 629, Act V: "Thrice happy lovers" (Juno) (2:32)
44. The Fairy Queen, Z. 629, Act V: The Plaint (7:24)
45. The Fairy Queen, Z. 629, Act V: Entry Dance (1:15)
46. The Fairy Queen, Z. 629, Act V: Symphony (1:05)
47. The Fairy Queen, Z. 629, Act V: "Thus the gloomy world" (The Chinese Man) (4:48)
48. The Fairy Queen, Z. 629, Act V: "Thus happy and free" (A Chinese Woman) (0:56)
49. The Fairy Queen, Z. 629, Act V: "Yes Xansi" (The Chinese Man) (2:10)
50. The Fairy Queen: Monkey's Dance (0:53)
51. The Fairy Queen, Z. 629, Act V: "Hark how all things" (A Chinese Woman) (2:01)
52. The Fairy Queen, Z. 629, Act V: "Hark! The choing air" (A Chinese Woman) (2:44)
53. The Fairy Queen, Z. 629, Act V: "Sure the dull God" (A Chinese Woman) (3:04)
54. The Fairy Queen, Z. 629, Act V: Prelude. "See, I obey" (Hymen) (1:53)
55. The Fairy Queen, Z. 629, Act V: "Turn then thine eyes" (Chinese Woman) (1:32)
56. The Fairy Queen, Z. 629, Act V: "My torch indeed" (Hymen) (0:39)
57. The Fairy Queen, Z. 629, Act V: "They shall be as happy" (0:49)
58. The Fairy Queen, Z. 629, Act V: Chaconne (3:04)
59. The Fairy Queen, Z. 629, Act V: "They shall be as happy" (1:02)

Personnel:
Deller Consort
Penelope Howard

foobar2000 1.3.7 / Dynamic Range Meter 1.1.1
log date: 2019-11-06 12:03:54

––––––––––––––––––––––––––––––––––––––––
Analyzed: Deller Consort / Purcell: The Fairy Queen (Remastered)
––––––––––––––––––––––––––––––––––––––––

DR Peak RMS Duration Track
––––––––––––––––––––––––––––––––––––––––
DR11 -5.06 dB -19.42 dB 1:58 01-The Fairy Queen, Z. 629, The First Musick: I. Prelude
DR11 -8.13 dB -22.14 dB 0:58 02-The Fairy Queen, Z. 629, The First Musick: II. Hornpipe
DR11 -10.43 dB -24.12 dB 0:59 03-The Fairy Queen, Z. 629, The Second Musick: I. Air
DR10 -6.88 dB -19.84 dB 1:21 04-The Fairy Queen, Z. 629, The Second Musick: II. Rondeau
DR9 -1.90 dB -14.42 dB 0:36 05-The Fairy Queen, Z. 629, The Second Musick: III. Overture
DR12 -2.08 dB -18.24 dB 3:13 06-The Fairy Queen, Z. 629, Act I: "Come let us leave" (Two Fairies)
DR13 -0.58 dB -17.96 dB 5:47 07-The Fairy Queen, Z. 629, Act I: Scene of the drunken poet
DR11 -5.67 dB -20.52 dB 1:13 08-The Fairy Queen, Z. 629, Act I: First Act tune
DR13 -6.95 dB -24.89 dB 1:57 09-The Fairy Queen, Z. 629, Act II: Prelude. "Come all ye songsters" (A Fairy)
DR10 -11.28 dB -25.50 dB 0:42 10-The Fairy Queen, Z. 629, Act II: Prelude.
DR13 -4.25 dB -21.32 dB 0:59 11-The Fairy Queen, Z. 629, Act II: "May the God of wit" (Three Fairies)
DR12 -2.36 dB -18.69 dB 1:33 12-The Fairy Queen, Z. 629, Act II: Echo. Now join your warbling voices
DR13 -1.72 dB -19.93 dB 2:13 13-The Fairy Queen, Z. 629, Act II: "Sing while we trip" (A Fairy). Fairy Dance
DR12 -0.63 dB -20.31 dB 5:14 14-The Fairy Queen, Z. 629, Act II: "See, even night" (Night)
DR14 -2.27 dB -22.38 dB 0:46 15-The Fairy Queen, Z. 629, Act II: "I am come to lock" (Mistery)
DR14 -8.03 dB -26.11 dB 2:05 16-The Fairy Queen, Z. 629, Act II: "One charming night" (Secret)
DR13 -5.63 dB -25.31 dB 5:02 17-The Fairy Queen, Z. 629, Act II: "Hush, no more" (Sleep)
DR10 -11.46 dB -24.96 dB 2:24 18-The Fairy Queen, Z. 629, Act II: Dance for the followers of Night
DR12 -5.67 dB -20.67 dB 1:22 19-The Fairy Queen, Z. 629, Act II: Second Act tune
DR12 -0.91 dB -18.18 dB 2:18 20-The Fairy Queen, Z. 629, Act III: "If love's a sweet passion" (A Nymph)
DR12 -9.51 dB -25.34 dB 3:24 21-The Fairy Queen, Z. 629, Act III: Symphony while the swans come forward
DR12 -7.68 dB -23.32 dB 0:52 22-The Fairy Queen, Z. 629, Act III: Dance for the Fairies
DR11 -4.09 dB -17.80 dB 1:51 23-The Fairy Queen, Z. 629, Act III: Dance for the Green Men
DR13 -1.21 dB -19.74 dB 4:54 24-The Fairy Queen, Z. 629, Act III: "Ye gentle spirits of the air" (A Nymph)
DR14 -3.83 dB -22.09 dB 3:51 25-The Fairy Queen, Z. 629, Act III: Dialogue between Corydon and Mopsa
DR12 -1.52 dB -20.28 dB 2:48 26-The Fairy Queen, Z. 629, Act III: "When I have often heard" (A Nymph)
DR11 -5.85 dB -19.11 dB 0:52 27-The Fairy Queen, Z. 629, Act III: Dance for the Haymakers
DR13 -1.31 dB -19.08 dB 2:33 28-The Fairy Queen, Z. 629, Act III: "A thousand, thousand ways" (Corydon, Mopsa)
DR11 -7.32 dB -22.35 dB 1:01 29-The Fairy Queen, Z. 629, Act III: Third Act tune
DR12 -0.58 dB -16.96 dB 6:14 30-The Fairy Queen, Z. 629, Act IV: Symphony
DR13 -1.45 dB -18.91 dB 2:16 31-The Fairy Queen, Z. 629, Act IV: "Now the night" (Attendants)
DR11 -3.04 dB -18.71 dB 1:25 32-The Fairy Queen, Z. 629, Act IV: "Let the fifes and the clarions" (Attendants)
DR11 -1.79 dB -14.75 dB 0:45 33-The Fairy Queen, Z. 629, Act IV: Entry of Phoebus
DR14 -6.23 dB -25.27 dB 3:11 34-The Fairy Queen, Z. 629, Act IV: "When a cruel long winter" (Phoebus)
DR10 -0.59 dB -14.88 dB 2:08 35-The Fairy Queen, Z. 629, Act IV: "Hail! Great parent" (Fairies)
DR12 -2.95 dB -21.85 dB 2:10 36-The Fairy Queen, Z. 629, Act IV: "Thus the ever grateful Spring" (Spring)
DR12 -7.98 dB -23.72 dB 1:11 37-The Fairy Queen, Z. 629, Act IV: "Here's the summer" (Summer)
DR12 -8.88 dB -26.46 dB 2:55 38-The Fairy Queen, Z. 629, Act IV: "See, see my many colour'd fields" (Automn)
DR14 -6.04 dB -27.84 dB 2:49 39-The Fairy Queen, Z. 629, Act IV: "Now winter comes slowly" (Winter)
DR10 -1.39 dB -14.70 dB 1:09 40-The Fairy Queen, Z. 629, Act IV: "Hail! Great parent!" (Fairies)
DR11 -8.51 dB -23.48 dB 1:06 41-The Fairy Queen, Z. 629, Act IV: Fourth Act tune
DR9 -11.24 dB -23.27 dB 0:36 42-The Fairy Queen, Z. 629, Act V: Prelude
DR13 -3.79 dB -22.89 dB 2:32 43-The Fairy Queen, Z. 629, Act V: "Thrice happy lovers" (Juno)
DR15 -0.58 dB -23.41 dB 7:24 44-The Fairy Queen, Z. 629, Act V: The Plaint
DR11 -6.31 dB -19.98 dB 1:15 45-The Fairy Queen, Z. 629, Act V: Entry Dance
DR11 -0.91 dB -16.60 dB 1:05 46-The Fairy Queen, Z. 629, Act V: Symphony
DR14 -6.41 dB -24.67 dB 4:48 47-The Fairy Queen, Z. 629, Act V: "Thus the gloomy world" (The Chinese Man)
DR12 -1.46 dB -19.79 dB 0:56 48-The Fairy Queen, Z. 629, Act V: "Thus happy and free" (A Chinese Woman)
DR12 -7.21 dB -25.21 dB 2:10 49-The Fairy Queen, Z. 629, Act V: "Yes Xansi" (The Chinese Man)
DR10 -8.10 dB -21.78 dB 0:53 50-The Fairy Queen: Monkey's Dance
DR13 -1.33 dB -19.95 dB 2:01 51-The Fairy Queen, Z. 629, Act V: "Hark how all things" (A Chinese Woman)
DR13 -1.12 dB -19.19 dB 2:44 52-The Fairy Queen, Z. 629, Act V: "Hark! The choing air" (A Chinese Woman)
DR11 -0.58 dB -16.99 dB 3:04 53-The Fairy Queen, Z. 629, Act V: "Sure the dull God" (A Chinese Woman)
DR13 -2.29 dB -20.94 dB 1:53 54-The Fairy Queen, Z. 629, Act V: Prelude. "See, I obey" (Hymen)
DR12 -1.31 dB -18.07 dB 1:32 55-The Fairy Queen, Z. 629, Act V: "Turn then thine eyes" (Chinese Woman)
DR12 -0.84 dB -18.40 dB 0:39 56-The Fairy Queen, Z. 629, Act V: "My torch indeed" (Hymen)
DR10 -1.04 dB -14.94 dB 0:49 57-The Fairy Queen, Z. 629, Act V: "They shall be as happy"
DR12 -6.30 dB -22.43 dB 3:04 58-The Fairy Queen, Z. 629, Act V: Chaconne
DR11 -1.75 dB -15.54 dB 1:02 59-The Fairy Queen, Z. 629, Act V: "They shall be as happy"
––––––––––––––––––––––––––––––––––––––––

Number of tracks: 59
Official DR value: DR12

Samplerate: 96000 Hz
Channels: 2
Bits per sample: 24
Bitrate: 2627 kbps
Codec: FLAC
================================================================================


Thanks to the Original customer.