Dennis DeYoung - 26 East, Vol. 2 (2021) [Official Digital Download]

Posted By: pyatak
Dennis DeYoung - 26 East, Vol. 2 (2021) [Official Digital Download]

Dennis DeYoung - 26 East, Vol. 2 (2021) [Official Digital Download]
FLAC (tracks) 24-bit/44.1 kHz | Front Cover | Time - 52:17 minutes | 638 MB
Hard Rock | Label: Frontiers Records s.r.l., Official Digital Download

Dennis DeYoung is back with the second volume of his fond farewell to recorded music, "26 East, Vol. 2.” As with the preceding volume, "26 East, Vol. 2" once again hints strongly at DeYoung's legendary rock roots with Styx. A fitting goodbye and a final signature on an outstanding body of work.
TRACKLIST

1. Dennis DeYoung - Hello Goodbye
2. Dennis DeYoung - Land of the Living
3. Dennis DeYoung - The Last Guitar Hero
4. Dennis DeYoung - Your Saving Grace
5. Dennis DeYoung - Proof of Heaven
6. Dennis DeYoung - Made for Each Other
7. Dennis DeYoung - There's No Turning Back Time
8. Dennis DeYoung - St. Quarantine
9. Dennis DeYoung - Little Did We Know
10. Dennis DeYoung - Always Time
11. Dennis DeYoung - The Isle of Misanthrope
12. Dennis DeYoung - Grand Finale

foobar2000 1.6.2 / Dynamic Range Meter 1.1.1
log date: 2021-06-11 07:01:23

––––––––––––––––––––––––––––––––––––––––
Analyzed: Dennis DeYoung / 26 East, Vol. 2
––––––––––––––––––––––––––––––––––––––––

DR Peak RMS Duration Track
––––––––––––––––––––––––––––––––––––––––
DR8 0.00 dB -9.41 dB 4:26 01-Hello Goodbye
DR7 -0.32 dB -8.98 dB 3:44 02-Land of the Living
DR7 0.00 dB -8.96 dB 4:47 03-The Last Guitar Hero
DR6 0.00 dB -8.07 dB 3:36 04-Your Saving Grace
DR6 0.00 dB -8.23 dB 5:28 05-Proof of Heaven
DR6 0.00 dB -8.43 dB 4:03 06-Made for Each Other
DR6 0.00 dB -8.71 dB 4:47 07-There's No Turning Back Time
DR7 0.00 dB -8.48 dB 5:00 08-St. Quarantine
DR7 0.00 dB -9.14 dB 4:17 09-Little Did We Know
DR6 0.00 dB -9.10 dB 4:07 10-Always Time
DR6 0.00 dB -8.90 dB 6:07 11-The Isle of Misanthrope
DR6 0.00 dB -8.82 dB 1:58 12-Grand Finale
––––––––––––––––––––––––––––––––––––––––

Number of tracks: 12
Official DR value: DR7

Samplerate: 44100 Hz
Channels: 2
Bits per sample: 24
Bitrate: 1600 kbps
Codec: FLAC
================================================================================



Thanks to the Original customer.